Не переживайте / Никаких забот / Pas d\'inquiétude (Тьерри Бинисти / Thierry Binisti) [2013, Франция, драма, HDTV 1080i] MVO

Ответить на тему
 
Автор Сообщение

user ®

Стаж: 7 лет 7 месяцев

Сообщений: 20008

Пост Пост: #1 от 17-Апр-2015 22:06

[Цитировать]

Не переживайте / Никаких забот / Pas d'inquiétude Страна: Франция
Жанр: драма
Год выпуска: 2013
Продолжительность: 01:29:40
Перевод: Профессиональный (многоголосый закадровый)
Cубтитры: нет
Режиссер: Тьерри Бинисти / Thierry Binisti
В ролях: Изабель Карре, Грегори Фетусси, Мишель Бернье, Александр Карьер, Ариэль Мутель
Описание: Когда Марк и Клэр покупают новый дом, их сын серьёзно заболевает. Они пытаются справиться с ситуацией, устраиваются на работу, но насколько верно это решение?
[url=http://***/forum/tracker.php?nm=%D0%9D%D0%B5%20%D0%BF%D0%B5%D1%80%D0%B5%D0%B6%D0%B8%D0%B2%D0%B0%D0%B9%D1%82%D0%B5%20%2F%20Pas%20d%27inquietude]Ссылка на другие альтернативные раздачи[/url]
Сэмпл: http://rusfolder.com/43471393

Кинопоиск: http://www.kinopoisk.ru/film/790200/
Тип релиза: HDTV 1080i
Контейнер: TS
Видео: AVC/H.264, 1920x1080 (16:9), 7761 Кбит/сек, 25.000 fps
Аудио: русский, MP2, 2ch, 48,0 КГц, 192 Кбит/сек
MediaInfo
Общее
Идентификатор : 1 (0x1)
Полное имя : C:\Documents and Settings\User\Рабочий стол\Никаких забот.ts
Формат : MPEG-TS
Размер файла : 5,24 Гбайт
Продолжительность : 1 ч. 29 м.
Режим общего битрейта : Переменный
Общий поток : 8369 Кбит/сек
Максимальный общий битрейт : 35,5 Мбит/сек
Видео
Идентификатор : 4113 (0x1011)
Идентификатор меню : 1 (0x1)
Формат : AVC
Формат/Информация : Advanced Video Codec
Профиль формата : Main@L4.0
Параметр CABAC формата : Да
Параметр ReFrames формата : 3 кадра
Идентификатор кодека : 27
Продолжительность : 1 ч. 29 м.
Вид битрейта : Переменный
Битрейт : 7761 Кбит/сек
Максимальный битрейт : 40,0 Мбит/сек
Ширина : 1920 пикселей
Высота : 1080 пикселей
Соотношение сторон : 16:9
Частота кадров : 25,000 кадров/сек
Стандарт вещания : Component
Цветовое пространство : YUV
Субдискретизация насыщенности : 4:2:0
Битовая глубина : 8 бит
Тип развёртки : Чересстрочная
Порядок развёртки : Верхнее поле первое
Бит/(Пиксели*Кадры) : 0.150
Размер потока : 4,86 Гбайт (93%)
colour_range : Limited
Аудио
Идентификатор : 4352 (0x1100)
Идентификатор меню : 1 (0x1)
Формат : MPEG Audio
Версия формата : Version 1
Профиль формата : Layer 2
Идентификатор кодека : 4
Продолжительность : 1 ч. 29 м.
Вид битрейта : Постоянный
Битрейт : 192 Кбит/сек
Каналы : 2 канала
Частота : 48,0 КГц
Метод сжатия : С потерями
Размер потока : 123 Мбайт (2%)
Язык : Russian
Скриншот с названием фильма Скриншоты
Скачать

Скачать торрент!

Как скачивать? · Что такое торрент? · Рейтинг и ограничения

Сайт не распространяет и не хранит электронные версии произведений, а лишь предоставляет доступ к создаваемому пользователями каталогу ссылок на торрент-файлы, которые содержат только списки хеш-сумм

[Профиль] [ЛС]
Показать сообщения:    
Ответить на тему

Текущее время: Сегодня 09:52

Часовой пояс: GMT + 4



Вы не можете начинать темы
Вы не можете отвечать на сообщения
Вы не можете редактировать свои сообщения
Вы не можете удалять свои сообщения
Вы не можете голосовать в опросах
Вы не можете прикреплять файлы к сообщениям
Вы не можете скачивать файлы