Дочь / Aatma (Дипак Рамсей / Deepak Ramsay) [2006, Индия, Ужасы, мистика, SATRip] MVO (Zee Tv)

Ответить на тему
 
Автор Сообщение

user ®

Стаж: 12 лет

Сообщений: 15092

Пост Пост: #1 от 17-Апр-2015 00:24

[Цитировать]

Дочь / Aatma
Страна: Индия
Жанр: Ужасы, мистика
Год выпуска: 2006
Продолжительность: 01:29:39
Перевод: Профессиональный (многоголосый закадровый) Zee Tv
Cубтитры: нет
Режиссер: Дипак Рамсей / Deepak Ramsay
В ролях: Капил Джавери, Неха, Викрам Сингх, Амриена, Мукеш Тивари, Садашив Амрапуркар, Уша Бачани, Бина, Дип Диллон
Описание: В самом начале фильма одержимая злым духом женщина совершает убийство. Ее родственники, обеспокоенные случившимся (еще бы не обеспокоиться - женщина выглядит как больная: выпученные глаза, раны на коже, ругается, кусается, летает по комнате, норовит удушить), вызывают священника, который и проводит сеанс экзорцизма. Изгнание Дьявола проходило тяжело, зло никак не хотело покидать тело несчастной женщины, а когда все-таки вышло из нее, далеко не ушло... Спустя годы в индийскую больницу, а точнее в морг, попадает труп священника. С этого момента у молодого врача и его возлюбленной больше не стало спокойной жизни. Злой дух повадился вселяться в тело молодой девушки, отравив жизнь всем ее близким.
Доп. информация: Релиз: Кинозал
Запись фильма, удаление рекламы: oktober (Спасибо!)
Сэмпл: http://multi-up.com/1044001
Качество видео: SATRip
Формат видео: AVI
Видео: XviD build 50, 640x320 (2.00:1), 25 fps, 1518 kbps avg
Аудио: MPEG Layer 3, 48 kHz, 2/0 (L,R) ch, 128.00 kbps avg
MediaInfo
General
Complete name : F:\Doch.2006.SATRip.XviD.oktober.avi
Format : AVI
Format/Info : Audio Video Interleave
File size : 1.04 GiB
Duration : 1h 29mn
Overall bit rate : 1 656 Kbps
Writing application : VirtualDubMod 1.5.10.2 (build 2540/release)
Writing library : VirtualDubMod build 2540/release
Video
ID : 0
Format : MPEG-4 Visual
Format profile : AdvancedSimple@L5
Format settings, BVOP : Yes
Format settings, QPel : No
Format settings, GMC : No warppoints
Format settings, Matrix : Default (H.263)
Codec ID : XVID
Codec ID/Hint : XviD
Duration : 1h 29mn
Bit rate : 1 518 Kbps
Width : 640 pixels
Height : 320 pixels
Display aspect ratio : 2.000
Frame rate : 25.000 fps
Resolution : 24 bits
Colorimetry : 4:2:0
Scan type : Progressive
Bits/(Pixel*Frame) : 0.297
Stream size : 974 MiB (92%)
Writing library : XviD 1.2.1 (UTC 2008-12-04)
Audio
ID : 1
Format : MPEG Audio
Format version : Version 1
Format profile : Layer 3
Codec ID : 55
Codec ID/Hint : MP3
Duration : 1h 29mn
Bit rate mode : Constant
Bit rate : 128 Kbps
Channel(s) : 2 channels
Sampling rate : 48.0 KHz
Resolution : 16 bits
Stream size : 82.1 MiB (8%)
Alignment : Aligned on interleaves
Interleave, duration : 40 ms (1.00 video frame)
Interleave, preload duration : 504 ms
Скриншоты
Скачать

Скачать торрент! Дочь / Aatma (Дипак Рамсей / Deepak Ramsay) [2006, Индия, Ужасы, мистика, SATRip] MVO (Zee Tv)

Как скачивать? · Что такое торрент? · Рейтинг и ограничения

Сайт не распространяет и не хранит электронные версии произведений, а лишь предоставляет доступ к создаваемому пользователями каталогу ссылок на торрент-файлы, которые содержат только списки хеш-сумм

[Профиль] [ЛС]
Показать сообщения:    
Ответить на тему

Текущее время: Сегодня 11:43

Часовой пояс: GMT + 4



Вы не можете начинать темы
Вы не можете отвечать на сообщения
Вы не можете редактировать свои сообщения
Вы не можете удалять свои сообщения
Вы не можете голосовать в опросах
Вы не можете прикреплять файлы к сообщениям
Вы не можете скачивать файлы