Приговор / Qayamat Se Qayamat Tak (Мансур Кхан / Mansoor Khan) [1988, Индия, Боевик, драма, мелодрама, DVDRip] Dub

Ответить на тему
 
Автор Сообщение

user ®

Стаж: 12 лет

Сообщений: 15092

Пост Пост: #1 от 15-Апр-2015 23:30

[Цитировать]

Приговор / Qayamat Se Qayamat Tak
Страна: Индия
Жанр: Боевик, драма, мелодрама
Год выпуска: 1988
Продолжительность: 02:38:37
Перевод: Профессиональный (дублированный) + Проф. многоголосый, на вырезанных фрагментах
Cубтитры: нет
Режиссер: Мансур Кхан / Mansoor Khan
В ролях: Аамир Кхан, Джухи Чавла, Гога Капур, Далип Тахил, Равиндра Капур, Аша Шарма, Алок Натх, Рима Лагу, Раджендранат Зутши, Шехназ Кудиа, Чарушила, Бина, Нандита Тхакур, Ахмед Кхан, Арджун, Аджит Вачани, Юнус Парвез, Виджу Кхоте, Сима Ваз, Файзал Кхан, Имран Кхан, Шива Риндани, Бридж Гопал
Описание: Радж и Рашми любят друг друга. Но у молодых людей нет никакой надежды на счастье и совместное будущее. Проблема — в происхождении: они принадлежат к очень уважаемым и богатым семьям, которые давно враждуют между собой. Естественно, их отцы даже слышать не хотят о том, чтобы Радж и Рашми были вместе. Поскольку молодые люди не намерены отказываться от своей любви, они принимают непростое решение — бежать. Однако родители не допустят такого позора. Отец Рашми находит влюбленных в маленьком домике в горах. Обезумев от злости, он стреляет в Раджа, но, по роковой случайности, пуля попадает в любимую дочь… Этот фильм о любви романтической, всепоглощающей и трагической. Добавим, что он был назван в Индии лучшим фильмом года. Это история Ромео и Джульетты по-индийски, трогательная и красивая...
Доп. информация: Исходник DVD-9 (СПАСИБО! Mersim)
В местах отсутствия дубляжа- профессиональный многоголосый перевод.
Синхронизация аудио: Василисса (Спасибо!)
Награды
1989, премия Filmfare Awards
* премия в категории «лучший фильм» (Насир Хуссейн)
* премия в категории «лучший режиссёр» (Мансур Хан)
* премия в категории «лучший мужской дебют» (Аамир Хан)
* премия в категории «новое лицо» (Джухи Чавла)
* премия в категории «лучший сценарий» (Насир Хуссейн)
* премия в категории «лучший оператор» (Киран Деоханс)
* премия в категории «лучший композитор» (Ананд Шривастав, Милинд Шривастав)
1989, Национальная кинопремия (Индия)
* премия в категории «лучший развлекательный фильм»
Сэмпл: http://multi-up.com/1043830
Качество видео: DVDRip
Формат видео: AVI
Видео: XviD build 50, 704x288 (2.44:1), 23.976 fps, 1117 kbps avg
Аудио: AC3 Dolby Digital, 48 kHz, 2/0 (L,R) ch, 192 kbps
MediaInfo
General
Complete name : D:\Prigovor.1988.XviD.DVDRip-Dego.avi
Format : AVI
Format/Info : Audio Video Interleave
File size : 1.46 GiB
Duration : 2h 38mn
Overall bit rate : 1 319 Kbps
Writing application : VirtualDubMod 1.5.10.2 (build 2540/release)
Writing library : VirtualDubMod build 2540/release
Video
ID : 0
Format : MPEG-4 Visual
Format profile : AdvancedSimple@L5
Format settings, BVOP : Yes
Format settings, QPel : No
Format settings, GMC : No warppoints
Format settings, Matrix : Custom
Codec ID : XVID
Codec ID/Hint : XviD
Duration : 2h 38mn
Bit rate : 1 118 Kbps
Width : 704 pixels
Height : 288 pixels
Display aspect ratio : 2.444
Frame rate : 23.976 fps
Resolution : 24 bits
Colorimetry : 4:2:0
Scan type : Progressive
Bits/(Pixel*Frame) : 0.230
Stream size : 1.24 GiB (85%)
Writing library : XviD 1.2.1 (UTC 2008-12-04)
Audio
ID : 1
Format : AC-3
Format/Info : Audio Coding 3
Codec ID : 2000
Duration : 2h 38mn
Bit rate mode : Constant
Bit rate : 192 Kbps
Channel(s) : 2 channels
Channel positions : L R
Sampling rate : 48.0 KHz
Stream size : 218 MiB (15%)
Alignment : Split accross interleaves
Interleave, duration : 42 ms (1.00 video frame)
Interleave, preload duration : 500 ms
Скриншоты
Скачать

Скачать торрент! Приговор / Qayamat Se Qayamat Tak (Мансур Кхан / Mansoor Khan) [1988, Индия, Боевик, драма, мелодрама, DVDRip] Dub

Как скачивать? · Что такое торрент? · Рейтинг и ограничения

Сайт не распространяет и не хранит электронные версии произведений, а лишь предоставляет доступ к создаваемому пользователями каталогу ссылок на торрент-файлы, которые содержат только списки хеш-сумм

[Профиль] [ЛС]
Показать сообщения:    
Ответить на тему

Текущее время: Сегодня 02:56

Часовой пояс: GMT + 4



Вы не можете начинать темы
Вы не можете отвечать на сообщения
Вы не можете редактировать свои сообщения
Вы не можете удалять свои сообщения
Вы не можете голосовать в опросах
Вы не можете прикреплять файлы к сообщениям
Вы не можете скачивать файлы