Лагерь «X-Ray» / Camp X-Ray (Питер Сэттлер / Peter Sattler) [2014, США, драма, BDRip 720p] DVO (Пиратская студия) + Sub Eng + Original Eng

Ответить на тему
 
Автор Сообщение

user ®

Стаж: 7 лет 7 месяцев

Сообщений: 20008

Пост Пост: #1 от 15-Апр-2015 17:18

[Цитировать]

Лагерь «X-Ray» / Camp X-Ray
Страна: США
Студия: GNK Productions
Жанр: драма
Год выпуска: 2014
Продолжительность: 01:57:11
Перевод: Любительский (двухголосый закадровый) Пиратская студия
Cубтитры: английские
Оригинальная аудиодорожка: английский
Режиссер: Питер Сэттлер / Peter Sattler
В ролях: Кристен Стюарт, Пейман Моаади, Кори Майкл Смит, Джон Кэрролл Линч, Тара Холт, Лэйн Гаррисон, Джулия Даффи, Юсуф Азами, Джозеф Джулиан Сория, Марко Хэнлиэн
Описание: Девушка по имени Коул вступает в ряды вооруженных сил США и по долгу службы попадает в, пожалуй, самое жуткое место в мире — тюрьму для военнопленных Гуантанамо. Героиня знакомится там с заключенным Али, который сидит к тому времени уже восемь лет, и решается вызволить его оттуда.
Доп. информация: За предоставленный Blu-Ray диск благодарность L'

Тип релиза: BDRip 720p
Контейнер: MKV
Видео: MPEG-4 AVC, 5780 Кбит/с, 1280x538, 24,000 fps
Аудио: Rus, AC3, 384 kb/s (2 ch), 48 kHz
Аудио 2: Eng, DTS, 768 kb/s (6 ch), 48 kHz
Формат субтитров: softsub (SRT)
MediaInfo
x264 [info]: frame I:988 Avg QP:14.94 size:108890
x264 [info]: frame P:33553 Avg QP:16.43 size: 57423
x264 [info]: frame B:133807 Avg QP:18.19 size: 23581
Format : Matroska
Format version : Version 4 / Version 2
File size : 5.78 GiB
Duration : 1h 56mn
Overall bit rate : 7 073 Kbps
Movie name : Лагерь «X-Ray». (Tonik)
Encoded date : UTC 2015-04-14 16:27:52
Writing application : mkvmerge v7.1.0 ('Good Love') 64bit built on Jul 27 2014 13:06:55
Writing library : libebml v1.3.0 + libmatroska v1.4.1
DURATION : 01:56:54.784000000
NUMBER_OF_FRAMES : 219212
NUMBER_OF_BYTES : 336709632
_STATISTICS_WRITING_APP : mkvmerge v7.1.0 ('Good Love') 64bit built on Jul 27 2014 13:06:55
_STATISTICS_WRITING_DATE_UTC : 2015-04-14 16:27:52
_STATISTICS_TAGS : BPS DURATION NUMBER_OF_FRAMES NUMBER_OF_BYTES
Video
ID : 1
Format : AVC
Format/Info : Advanced Video Codec
Format profile : High@L4.1
Format settings, CABAC : Yes
Format settings, ReFrames : 12 frames
Codec ID : V_MPEG4/ISO/AVC
Duration : 1h 56mn
Bit rate : 5 780 Kbps
Width : 1 280 pixels
Height : 538 pixels
Display aspect ratio : 2.40:1
Frame rate mode : Constant
Frame rate : 24.000 fps
Color space : YUV
Chroma subsampling : 4:2:0
Bit depth : 8 bits
Scan type : Progressive
Bits/(Pixel*Frame) : 0.350
Stream size : 4.72 GiB (82%)
Title : Tonik
Writing library : x264 core 146 r2538 121396c
Encoding settings : cabac=1 / ref=12 / deblock=1:-3:-3 / analyse=0x3:0x133 / me=umh / subme=11 / psy=1 / psy_rd=1.00:0.00 / mixed_ref=1 / me_range=32 / chroma_me=1 / trellis=2 / 8x8dct=1 / cqm=0 / deadzone=21,11 / fast_pskip=0 / chroma_qp_offset=-2 / threads=12 / lookahead_threads=3 / sliced_threads=0 / nr=0 / decimate=1 / interlaced=0 / bluray_compat=0 / constrained_intra=0 / bframes=11 / b_pyramid=2 / b_adapt=2 / b_bias=0 / direct=1 / weightb=1 / open_gop=0 / weightp=2 / keyint=250 / keyint_min=24 / scenecut=40 / intra_refresh=0 / rc=crf / mbtree=0 / crf=17.0 / qcomp=0.60 / qpmin=0 / qpmax=69 / qpstep=4 / ip_ratio=1.40 / pb_ratio=1.30 / aq=1:1.00
Language : English
Default : Yes
Forced : No
DURATION : 01:56:54.500000000
NUMBER_OF_FRAMES : 168348
NUMBER_OF_BYTES : 5189658003
_STATISTICS_WRITING_APP : mkvmerge v7.1.0 ('Good Love') 64bit built on Jul 27 2014 13:06:55
_STATISTICS_WRITING_DATE_UTC : 2015-04-14 16:27:52
_STATISTICS_TAGS : BPS DURATION NUMBER_OF_FRAMES NUMBER_OF_BYTES
Audio #1
ID : 2
Format : AC-3
Format/Info : Audio Coding 3
Mode extension : CM (complete main)
Format settings, Endianness : Big
Codec ID : A_AC3
Duration : 1h 56mn
Bit rate mode : Constant
Bit rate : 384 Kbps
Channel(s) : 2 channels
Channel positions : Front: L R
Sampling rate : 48.0 KHz
Bit depth : 16 bits
Compression mode : Lossy
Stream size : 321 MiB (5%)
Title : DVO
Language : Russian
Default : Yes
Forced : No
Audio #2
ID : 3
Format : DTS
Format/Info : Digital Theater Systems
Mode : 16
Format settings, Endianness : Big
Codec ID : A_DTS
Duration : 1h 56mn
Bit rate mode : Constant
Bit rate : 768 Kbps
Channel(s) : 6 channels
Channel positions : Front: L C R, Side: L R, LFE
Sampling rate : 48.0 KHz
Bit depth : 16 bits
Compression mode : Lossy
Stream size : 642 MiB (11%)
Language : English
Default : No
Forced : No
Text
ID : 4
Format : UTF-8
Codec ID : S_TEXT/UTF8
Codec ID/Info : UTF-8 Plain Text
Language : English
Default : No
Forced : No
Скриншоты
Скачать

Скачать торрент!

Как скачивать? · Что такое торрент? · Рейтинг и ограничения

Сайт не распространяет и не хранит электронные версии произведений, а лишь предоставляет доступ к создаваемому пользователями каталогу ссылок на торрент-файлы, которые содержат только списки хеш-сумм

[Профиль] [ЛС]
Показать сообщения:    
Ответить на тему

Текущее время: Сегодня 12:12

Часовой пояс: GMT + 4



Вы не можете начинать темы
Вы не можете отвечать на сообщения
Вы не можете редактировать свои сообщения
Вы не можете удалять свои сообщения
Вы не можете голосовать в опросах
Вы не можете прикреплять файлы к сообщениям
Вы не можете скачивать файлы