Кукушка (Александр Рогожкин) [2002, драма, военный, комедия, DVDRip-AVC] Sub Rus, Eng

Ответить на тему
 
Автор Сообщение

user ®

Стаж: 7 лет 7 месяцев

Сообщений: 20008

Пост Пост: #1 от 15-Апр-2015 14:12

[Цитировать]

Кукушка
Жанр: драма, военный, комедия
Год выпуска: 2002
Продолжительность: 01:39:19
Cубтитры: русские, русские (для интернациональной версии), английские
Режиссёр: Александр Рогожкин
В ролях: Анни-Кристина Юусо, Вилле Хаапасало, Виктор Бычков, Алексей Кашников, Алексей Панжеев, Владимир Матвеев, Владимир Кныш, Валерий Яковлев, Сергей Берзин, Юлия Проничева...
Описание: Сентябрь 1944 года, несколько дней до выхода Финляндии из Второй Мировой войны. Финскому снайперу-смертнику Вейко, прикованному к скале, удается освободиться от цепей. Капитан Советской армии Иван арестован СМЕРШем, и тоже только чудом остается в живых.
Солдатов враждующих армий приютила у себя на хуторе саамка Анни. Для нее они не враги, а просто мужчины. И все трое говорят на разных языках…
Доп. информация: Основная аудио дорожка собрана из DTS. У видео плавающий кроп.
Сэмпл: http://multi-up.com/1043868
Качество видео: DVDRip-AVC [url=http://***/forum/viewtopic.php?t=2129942]Исходник[/url]
Формат видео: MKV
Видео: 692x546 (16:9) @ 984x546, 25.000 fps, AVC, ~1640 Kbps, 0.174 bits/pixel
Аудио 1: 48.0 KHz, AC3, 6 ch, 448 Kbps
Аудио 2: 48.0 KHz, AC3, 6 ch, 384 Kbps Интернациональная версия (без закадрового перевода) отдельным файлом

Сравнение
[url=http://***/forum/viewtopic.php?t=2267993]http://***/forum/viewtopic.php?t=2267993[/url]
http://screenshotcomparison.com/comparison/122047/picture:0-[url=http://***/forum/viewtopic.php?t=2563856]http://***/forum/viewtopic.php?t=2563856[/url]
http://screenshotcomparison.com/comparison/122048
MediaInfo
General
Unique ID : 194158187013857481554210602170182772127 (0x921181B29F03EF4EAE18261EE0B3A59F)
Complete name : C:\Кукушка\Кукушка.mkv
Format : Matroska
Format version : Version 4 / Version 2
File size : 1.45 GiB
Duration : 1h 39mn
Overall bit rate : 2 090 Kbps
Encoded date : UTC 2015-04-15 08:08:23
Writing application : mkvmerge v7.7.0 ('Six Voices') 64bit built on Feb 28 2015 23:39:33
Writing library : libebml v1.3.1 + libmatroska v1.4.2
DURATION : 01:38:42.120000000
NUMBER_OF_FRAMES : 479
NUMBER_OF_BYTES : 17806
_STATISTICS_WRITING_APP : mkvmerge v7.7.0 ('Six Voices') 64bit built on Feb 28 2015 23:39:33
_STATISTICS_WRITING_DATE_UT : 2015-04-15 08:08:23
_STATISTICS_TAGS : BPS DURATION NUMBER_OF_FRAMES NUMBER_OF_BYTES
Video
ID : 1
Format : AVC
Format/Info : Advanced Video Codec
Format profile : High@L3.1
Format settings, CABAC : Yes
Format settings, ReFrames : 10 frames
Codec ID : V_MPEG4/ISO/AVC
Duration : 1h 39mn
Bit rate : 1 640 Kbps
Width : 692 pixels
Height : 546 pixels
Display aspect ratio : 16:9
Frame rate mode : Constant
Frame rate : 25.000 fps
Color space : YUV
Chroma subsampling : 4:2:0
Bit depth : 8 bits
Scan type : Progressive
Bits/(Pixel*Frame) : 0.174
Stream size : 1.11 GiB (77%)
Writing library : x264 core 146 r2538 121396c
Encoding settings : cabac=1 / ref=10 / deblock=1:-1:-1 / analyse=0x3:0x133 / me=umh / subme=10 / psy=1 / psy_rd=1.00:0.10 / mixed_ref=1 / me_range=32 / chroma_me=1 / trellis=2 / 8x8dct=1 / cqm=0 / deadzone=21,11 / fast_pskip=0 / chroma_qp_offset=-3 / threads=6 / lookahead_threads=1 / sliced_threads=0 / nr=0 / decimate=1 / interlaced=0 / bluray_compat=0 / constrained_intra=0 / bframes=10 / b_pyramid=2 / b_adapt=2 / b_bias=0 / direct=3 / weightb=1 / open_gop=0 / weightp=2 / keyint=250 / keyint_min=25 / scenecut=40 / intra_refresh=0 / rc_lookahead=50 / rc=2pass / mbtree=1 / bitrate=1640 / ratetol=1.0 / qcomp=0.60 / qpmin=0 / qpmax=69 / qpstep=4 / cplxblur=20.0 / qblur=0.5 / ip_ratio=1.40 / aq=1:1.00
Language : Russian
Default : Yes
Forced : No
Audio
ID : 2
Format : AC-3
Format/Info : Audio Coding 3
Mode extension : CM (complete main)
Format settings, Endianness : Big
Codec ID : A_AC3
Duration : 1h 39mn
Bit rate mode : Constant
Bit rate : 448 Kbps
Channel(s) : 6 channels
Channel positions : Front: L C R, Side: L R, LFE
Sampling rate : 48.0 KHz
Bit depth : 16 bits
Compression mode : Lossy
Stream size : 318 MiB (21%)
Language : Russian
Default : Yes
Forced : No
Text #1
ID : 3
Format : UTF-8
Codec ID : S_TEXT/UTF8
Codec ID/Info : UTF-8 Plain Text
Language : Russian
Default : No
Forced : No
Text #2
ID : 4
Format : UTF-8
Codec ID : S_TEXT/UTF8
Codec ID/Info : UTF-8 Plain Text
Title : International
Language : Russian
Default : No
Forced : No
Text #3
ID : 5
Format : UTF-8
Codec ID : S_TEXT/UTF8
Codec ID/Info : UTF-8 Plain Text
Language : English
Default : No
Forced : No
Menu
00:00:00.000 : :Кукушка
00:10:20.920 : :Арестант
00:15:03.520 : :Бомбежка
00:21:14.920 : :Неожиданное знакомство
00:29:10.720 : :Долгожданное освобождение
00:33:50.920 : :Встреча трех
00:39:57.520 : :Выяснение отношений
00:53:31.120 : :Приятная находка
00:57:06.520 : :В бане
01:00:33.520 : :Вынужденный ночлег
01:06:27.520 : :"Спасибо за все"
01:10:37.120 : :"Если бы не контузия"
01:16:23.320 : :Финляндия вышла из войны
01:18:21.520 : :"Парень не умирай!"
01:21:46.720 : :Шаманский бубен
01:33:43.120 : :Прощание
01:35:31.120 : :Эпилог
01:37:06.520 : :Заключительные титры
Log
avs4x264.exe: -L x264_64.exe --pass 2 --bitrate 1640 --preset medium --ref 10 --deblock -1:-1 --merange 32 --bframes 10 --direct auto --b-adapt 2 --trellis 2 --no-fast-pskip --psy-rd 1.00:0.10 --partitions all --subme 10 --me umh --rc-lookahead 50 --sar 987:694 --stats
raw [info]: 692x546p 987:694 @ 25/1 fps (cfr)
x264 [info]: using SAR=987/694
x264 [info]: using cpu capabilities: MMX2 SSE2Fast LZCNT
x264 [info]: profile High, level 3.1
x264 [info]: frame I:778 Avg QP:15.78 size: 63159
x264 [info]: frame P:33932 Avg QP:19.26 size: 20910
x264 [info]: frame B:114268 Avg QP:24.04 size: 4049
x264 [info]: consecutive B-frames: 2.6% 3.6% 14.9% 8.0% 5.8% 63.0% 1.2% 0.4% 0.2% 0.1% 0.3%
x264 [info]: mb I I16..4: 7.6% 68.6% 23.8%
x264 [info]: mb P I16..4: 0.7% 9.0% 2.3% P16..4: 41.0% 21.2% 16.9% 1.1% 0.4% skip: 7.4%
x264 [info]: mb B I16..4: 0.1% 0.7% 0.3% B16..8: 37.4% 8.3% 2.0% direct: 4.5% skip:46.8% L0:35.9% L1:45.2% BI:18.9%
x264 [info]: 8x8 transform intra:73.0% inter:59.8%
x264 [info]: direct mvs spatial:97.1% temporal:2.9%
x264 [info]: coded y,uvDC,uvAC intra: 81.0% 73.3% 40.6% inter: 22.8% 15.2% 2.5%
x264 [info]: i16 v,h,dc,p: 39% 27% 9% 26%
x264 [info]: i8 v,h,dc,ddl,ddr,vr,hd,vl,hu: 17% 11% 13% 6% 10% 13% 9% 11% 10%
x264 [info]: i4 v,h,dc,ddl,ddr,vr,hd,vl,hu: 24% 22% 5% 5% 9% 11% 7% 8% 8%
x264 [info]: i8c dc,h,v,p: 38% 27% 21% 14%
x264 [info]: Weighted P-Frames: Y:7.0% UV:3.6%
x264 [info]: ref P L0: 46.2% 15.5% 18.7% 4.4% 4.6% 2.6% 3.0% 1.4% 1.7% 1.3% 0.5% 0.0%
x264 [info]: ref B L0: 80.5% 9.8% 3.4% 1.9% 1.4% 1.2% 1.0% 0.5% 0.3%
x264 [info]: ref B L1: 95.3% 4.7%
x264 [info]: kb/s:1639.62
x264 [total]: encoded 148978 frames, 9.68 fps, 1639.62 kb/s
Скриншоты
Скачать

Скачать торрент!

Как скачивать? · Что такое торрент? · Рейтинг и ограничения

Сайт не распространяет и не хранит электронные версии произведений, а лишь предоставляет доступ к создаваемому пользователями каталогу ссылок на торрент-файлы, которые содержат только списки хеш-сумм

[Профиль] [ЛС]
Показать сообщения:    
Ответить на тему

Текущее время: Сегодня 09:50

Часовой пояс: GMT + 4



Вы не можете начинать темы
Вы не можете отвечать на сообщения
Вы не можете редактировать свои сообщения
Вы не можете удалять свои сообщения
Вы не можете голосовать в опросах
Вы не можете прикреплять файлы к сообщениям
Вы не можете скачивать файлы