Безвыходная ситуация / Small Apartments (Йонас Окерлунд / Jonas Åkerlund) [2012, США, драма, комедия, криминал, BDRip 720p] MVO + DVO (Elrom) + VO (TakeDown) + Original (Eng) + Subs (Rus, Eng)

Ответить на тему
 
Автор Сообщение

user ®

Стаж: 7 лет 7 месяцев

Сообщений: 20008

Пост Пост: #1 от 14-Апр-2015 07:15

[Цитировать]

Безвыходная ситуация / Small Apartments Страна: США
Студия: Morocco Junction Pictures, Deviant Films, ...
Жанр: драма, комедия, криминал
Год выпуска: 2012
Продолжительность: 01:32:08
Перевод:
  • Профессиональный (многоголосый закадровый)
  • Профессиональный (двухголосый закадровый) Ульпаней Эльром
  • Одноголосый закадровый TakeDown
    Cубтитры: английские, русские (jerichOne)
    Оригинальная аудиодорожка: английский
    Режиссер: Йонас Окерлунд / Jonas Åkerlund
    В ролях: Мэтт Лукас, Наггет, Джеймс Каан, Джуно Темпл, Саффрон Берроуз, Джонни Ноксвил, Дольф Лундгрен, Ребел Уилсон, Джеймс Марсден, DJ Куаллс
    Описание:
    Волей ужасного случая, должник-арендатор убивает хозяина квартиры. И, дабы замести следы совершённого преступления, новоиспечённый убийца пытается сделать всё, что в его силах, скрывая тело и стараясь вести неприметный образ жизни. Но жизнь для него уже не будет прежней, к тому же, сложившаяся ситуация и вся совокупность обстоятельств заставляют молодого человека идти по дороге, у которой нет пути назад, подталкивая к опасной черте, грозящей гибелью…
    - || -Тип релиза: BDRip 720p (рип от EbP)
    Контейнер: MKV
    Видео: AVC (x264), 1280x694 (1,85:1) at 23,976 fps, 7523 Кbps, 0.353 bpp
    Аудио 1: AC3; 192 Kbps; CBR; 2 ch; 48 khz | MVO |
    Аудио 2: AC3; 192 Kbps; CBR; 2 ch; 48 khz | DVO - Ульпаней Эльром |
    Аудио 3: AC3; 448 Kbps; CBR; 6 ch; 48 khz | VO - TakeDown |
    Аудио 4: DTS; 1536 Kbps; CBR; 6 ch; 48 khz; 24 bit | Английский |
    Формат субтитров: softsub (SRT)

    Скриншоты || x264 Info || MediaInfo || Notes
    MediaInfo
General
Unique ID                                : 192073763118909703014952764840892096249 (0x90800FAA4A80DD10921B35A305B2DEF9)
Complete name                            : Безвыходная ситуация.2012.P.720p.BluRay.x264-EbP.mkv
Format                                   : Matroska
Format version                           : Version 4 / Version 2
File size                                : 6.48 GiB
Duration                                 : 1h 32mn
Overall bit rate                         : 10.1 Mbps
Movie name                               : Small Apartments [2012] [720p] MVO
Encoded date                             : UTC 2015-04-13 17:36:17
Writing application                      : mkvmerge v7.8.0 ('River Man') 32bit built on Mar 27 2015 16:18:02
Writing library                          : libebml v1.3.1 + libmatroska v1.4.2
Video
ID                                       : 1
Format                                   : AVC
Format/Info                              : Advanced Video Codec
Format profile                           : High@L4.1
Format settings, CABAC                   : Yes
Format settings, ReFrames                : 9 frames
Codec ID                                 : V_MPEG4/ISO/AVC
Duration                                 : 1h 32mn
Bit rate                                 : 7 523 Kbps
Width                                    : 1 280 pixels
Height                                   : 694 pixels
Display aspect ratio                     : 1.85:1
Frame rate mode                          : Constant
Frame rate                               : 23.976 fps
Color space                              : YUV
Chroma subsampling                       : 4:2:0
Bit depth                                : 8 bits
Scan type                                : Progressive
Bits/(Pixel*Frame)                       : 0.353
Stream size                              : 4.84 GiB (75%)
Title                                    : profile.php?mode=viewprofile&u=22488948
Writing library                          : x264 core 130 r2273 b3065e6
Encoding settings                        : cabac=1 / ref=9 / deblock=1:-3:-3 / analyse=0x3:0x133 / me=umh / subme=11 / psy=1 / psy_rd=0.80:0.00 / mixed_ref=1 / me_range=64 / chroma_me=1 / trellis=2 / 8x8dct=1 / cqm=0 / deadzone=21,11 / fast_pskip=0 / chroma_qp_offset=-2 / threads=12 / lookahead_threads=2 / sliced_threads=0 / nr=0 / decimate=0 / interlaced=0 / bluray_compat=0 / constrained_intra=0 / bframes=8 / b_pyramid=2 / b_adapt=2 / b_bias=0 / direct=3 / weightb=1 / open_gop=0 / weightp=2 / keyint=250 / keyint_min=23 / scenecut=40 / intra_refresh=0 / rc=crf / mbtree=0 / crf=15.5 / qcomp=0.75 / qpmin=0 / qpmax=69 / qpstep=4 / ip_ratio=1.30 / pb_ratio=1.30 / aq=1:0.95
Language                                 : English
Default                                  : Yes
Forced                                   : No
Audio #1
ID                                       : 2
Format                                   : AC-3
Format/Info                              : Audio Coding 3
Mode extension                           : CM (complete main)
Format settings, Endianness              : Big
Codec ID                                 : A_AC3
Duration                                 : 1h 32mn
Bit rate mode                            : Constant
Bit rate                                 : 192 Kbps
Channel(s)                               : 2 channels
Channel positions                        : Front: L R
Sampling rate                            : 48.0 KHz
Bit depth                                : 16 bits
Compression mode                         : Lossy
Stream size                              : 127 MiB (2%)
Title                                    : P, MVO
Language                                 : Russian
Default                                  : Yes
Forced                                   : No
Audio #2
ID                                       : 3
Format                                   : AC-3
Format/Info                              : Audio Coding 3
Mode extension                           : CM (complete main)
Format settings, Endianness              : Big
Codec ID                                 : A_AC3
Duration                                 : 1h 32mn
Bit rate mode                            : Constant
Bit rate                                 : 192 Kbps
Channel(s)                               : 2 channels
Channel positions                        : Front: L R
Sampling rate                            : 48.0 KHz
Bit depth                                : 16 bits
Compression mode                         : Lossy
Stream size                              : 127 MiB (2%)
Title                                    : P, DVO [Elrom]
Language                                 : Russian
Default                                  : No
Forced                                   : No
Audio #3
ID                                       : 4
Format                                   : AC-3
Format/Info                              : Audio Coding 3
Mode extension                           : CM (complete main)
Format settings, Endianness              : Big
Codec ID                                 : A_AC3
Duration                                 : 1h 32mn
Bit rate mode                            : Constant
Bit rate                                 : 448 Kbps
Channel(s)                               : 6 channels
Channel positions                        : Front: L C R, Side: L R, LFE
Sampling rate                            : 48.0 KHz
Bit depth                                : 16 bits
Compression mode                         : Lossy
Stream size                              : 295 MiB (4%)
Title                                    : VO [TakeDown]
Language                                 : Russian
Default                                  : No
Forced                                   : No
Audio #4
ID                                       : 5
Format                                   : DTS
Format/Info                              : Digital Theater Systems
Mode                                     : 16
Format settings, Endianness              : Big
Codec ID                                 : A_DTS
Duration                                 : 1h 32mn
Bit rate mode                            : Constant
Bit rate                                 : 1 509 Kbps
Channel(s)                               : 6 channels
Channel positions                        : Front: L C R, Side: L R, LFE
Sampling rate                            : 48.0 KHz
Bit depth                                : 24 bits
Compression mode                         : Lossy
Stream size                              : 995 MiB (15%)
Language                                 : English
Default                                  : No
Forced                                   : No
Text #1
ID                                       : 6
Format                                   : UTF-8
Codec ID                                 : S_TEXT/UTF8
Codec ID/Info                            : UTF-8 Plain Text
Title                                    : [jerichOne]
Language                                 : Russian
Default                                  : No
Forced                                   : No
Text #2
ID                                       : 7
Format                                   : UTF-8
Codec ID                                 : S_TEXT/UTF8
Codec ID/Info                            : UTF-8 Plain Text
Language                                 : English
Default                                  : No
Forced                                   : No
Menu
00:00:00.000                             : en:00:00:00.000
00:06:05.282                             : en:00:06:05.282
00:11:18.136                             : en:00:11:18.136
00:16:55.640                             : en:00:16:55.640
00:24:28.217                             : en:00:24:28.217
00:27:53.463                             : en:00:27:53.463
00:35:48.146                             : en:00:35:48.146
00:39:19.065                             : en:00:39:19.065
00:46:10.518                             : en:00:46:10.518
00:56:56.038                             : en:00:56:56.038
01:02:10.018                             : en:01:02:10.018
01:06:37.952                             : en:01:06:37.952
01:12:32.431                             : en:01:12:32.431
01:16:06.896                             : en:01:16:06.896
01:23:49.358                             : en:01:23:49.358
01:26:45.075                             : en:01:26:45.075
x264 Infox264 [info]: frame I:1745 Avg QP:14.11 size:168964
x264 [info]: frame P:28512 Avg QP:14.34 size: 72895
x264 [info]: frame B:102295 Avg QP:16.06 size: 28952 Цитата: Аудио дорожка №1 Записана мной с онлайн-кинотеатра
Аудио дорожка №2 взята с этой [url=http://***/forum/viewtopic.php?t=4623786]раздачи[/url], thx: 25k
Аудио дорожка №3 взята с релиза от
Из дорожки №3 была вырезана реклама стороннего ресурса и она была "сдута" - исходная дорожка (640 Кbps) была апконверт
-
DarkSonSami писал(а):
Debanded.
Скачать

Скачать торрент!

Как скачивать? · Что такое торрент? · Рейтинг и ограничения

Сайт не распространяет и не хранит электронные версии произведений, а лишь предоставляет доступ к создаваемому пользователями каталогу ссылок на торрент-файлы, которые содержат только списки хеш-сумм

[Профиль] [ЛС]
Показать сообщения:    
Ответить на тему

Текущее время: Сегодня 21:54

Часовой пояс: GMT + 4



Вы не можете начинать темы
Вы не можете отвечать на сообщения
Вы не можете редактировать свои сообщения
Вы не можете удалять свои сообщения
Вы не можете голосовать в опросах
Вы не можете прикреплять файлы к сообщениям
Вы не можете скачивать файлы