Благодетель / Миротворец / Govindudu Andarivadele (Кришна Вамси / Krishna Vamsi) [2014, Индия, Мелодрама, драма, DVDRip] DVO (DeadSno & den904) + Sub Rus (песни)

Ответить на тему
 
Автор Сообщение

user ®

Стаж: 12 лет

Сообщений: 15092

Пост Пост: #1 от 14-Апр-2015 01:06

[Цитировать]

Благодетель / Govindudu Andarivadele
Страна: Индия
Жанр: Мелодрама, драма
Год выпуска: 2014
Продолжительность: 02:29:03
Перевод: Любительский (двухголосый закадровый) - DeadSno & den904
Cубтитры: русские (на песни)-Режиссер: Кришна Вамси / Krishna Vamsi-В ролях: Рам Чаран Теджа, Каджал Агарвал, Шрикант, Пракаш Радж, Джаясудха, Камалини Махержи-Описание: Молодой парень Абхирам, живущий в Лондоне, узнаёт о ссоре своего отца со своим дедушкой. Загоревшийся желанием скорее помирить родственников, юноша отправляется в Индию и прикидывается студентом, приехавшим изучать сельское хозяйство... (с) HASEENA- | --Качество видео: DVDRip
Формат видео: AVI-Видео: 720x304 (2.37:1), 23.976 fps, XviD build 50 ~1157 kbps avg, 0.22 bit/pixel
Аудио: 48 kHz, AC3 Dolby Digital, 2/0 (L,R) ch, ~192 kbps
Формат субтитров: ASS (отключаемые, отдельный файл)-Сэмпл / Sample-Озвучка: DeadSno & den904 (спасибо)
Перевод и редакция: Honey&Haseena (спасибо)
Переведено и озвучено по заказу Biff Tannen (спасибо)- Скриншот с названием
-
Скриншоты
-
MI
General
Complete name : K:\Blagodetel.2014.DVDRip.XviD.Kolobok.Honey&Haseena\Blagodetel.2014.DVDRip.XviD.Kolobok.Honey&Haseena.avi
Format : AVI
Format/Info : Audio Video Interleave
File size : 1.41 GiB
Duration : 2h 29mn
Overall bit rate : 1 359 Kbps
Writing application : VirtualDubMod 1.5.10.2 (build 2540/release)
Writing library : VirtualDubMod build 2540/release
Video
ID : 0
Format : MPEG-4 Visual
Format profile : Advanced Simple@L5
Format settings, BVOP : 2
Format settings, QPel : Yes
Format settings, GMC : No warppoints
Format settings, Matrix : Default (H.263)
Codec ID : XVID
Codec ID/Hint : XviD
Duration : 2h 29mn
Bit rate : 1 157 Kbps
Width : 720 pixels
Height : 304 pixels
Display aspect ratio : 2.35:1
Frame rate : 23.976 fps
Color space : YUV
Chroma subsampling : 4:2:0
Bit depth : 8 bits
Scan type : Progressive
Compression mode : Lossy
Bits/(Pixel*Frame) : 0.221
Stream size : 1.20 GiB (85%)
Writing library : XviD 1.2.1 (UTC 2008-12-04)
Audio
ID : 1
Format : AC-3
Format/Info : Audio Coding 3
Mode extension : CM (complete main)
Format settings, Endianness : Big
Codec ID : 2000
Duration : 2h 28mn
Bit rate mode : Constant
Bit rate : 192 Kbps
Channel(s) : 2 channels
Channel positions : Front: L R
Sampling rate : 48.0 KHz
Bit depth : 16 bits
Compression mode : Lossy
Stream size : 205 MiB (14%)
Alignment : Split accross interleaves
Interleave, duration : 42 ms (1.00 video frame)
Interleave, preload duratio : 500 ms
-
Скачать

Скачать торрент! Благодетель / Миротворец / Govindudu Andarivadele (Кришна Вамси / Krishna Vamsi) [2014, Индия, Мелодрама, драма, DVDRip] DVO (DeadSno & den904) + Sub Rus (песни)

Как скачивать? · Что такое торрент? · Рейтинг и ограничения

Сайт не распространяет и не хранит электронные версии произведений, а лишь предоставляет доступ к создаваемому пользователями каталогу ссылок на торрент-файлы, которые содержат только списки хеш-сумм

[Профиль] [ЛС]
Показать сообщения:    
Ответить на тему

Текущее время: Сегодня 17:52

Часовой пояс: GMT + 4



Вы не можете начинать темы
Вы не можете отвечать на сообщения
Вы не можете редактировать свои сообщения
Вы не можете удалять свои сообщения
Вы не можете голосовать в опросах
Вы не можете прикреплять файлы к сообщениям
Вы не можете скачивать файлы