Аминь / Amen. (Коста-Гаврас / Costa-Gavras) [2002, Франция, Германия, Румыния, США, драма, BDRip 1080p] VO + Sub Rus, Eng + Original Eng

Ответить на тему
 
Автор Сообщение

user ®

Стаж: 7 лет 7 месяцев

Сообщений: 20008

Пост Пост: #1 от 14-Апр-2015 01:06

[Цитировать]

Аминь. / Amen.
Страна: Франция, Германия, Румыния, США
Жанр: Драма
Год выпуска: 2002
Продолжительность: 02:11:25
Перевод: Одноголосый закадровый
Cубтитры: русские, английские
Оригинальная аудиодорожка: английский
Режиссер: Коста-Гаврас / Costa-Gavras
В ролях: Ульрих Тукур, Матьё Кассовиц, Ульрих Мюэ, Мишель Дюшоссуа, Ион Карамитру, Марчел Юреш, Фридрих фон Тун, Антье Шмидт, Ханнс Цишлер, Себастьян Кох
Описание: Это история нацистского офицера СС, лейтенанта Курта Герстейна (Ульрих Тукур), пытающегося в 1942 году сообщить Папе Римскому об истреблении еврейских заключенных в концентрационных лагерях Холокоста. Помогал ему в этом молодой иезуитский священник (Матьё Кассовиц). Когда Герстейн узнал, что газ, в разработке которого он принимал участие - Циклон Б, создается, оказывается, для уничтожения людей, он решил убедить Папу Римского, выпустить глобальное обращение к христианам во всем мире и рассказать им о злодеяниях, совершаемых нацистами, чтобы предотвратить гибель миллионов невинных людей.
Фильм поднимает сложные и щепетильные вопросы о молчании римско-католической церкви и папы Пия ХII по поводу преступлений фашистов в период гитлеровского режима. Зритель постепенно приходит к выводу о существовании скрытых отношений между высшими кругами Берлина и католической церкви. В результате, по мнению авторов фильма, Ватикан не смог или не захотел открыто противостоять ужаснейшим преступлениям ХХ века.
4 wins & 8 nominations
Доп. информация: К BDRip 1080p, скачанному с забугорного трекера, добавлены русская звуковая дорожка и субтитры с [url=http://***/forum/viewtopic.php?t=3697570]этой[/url] раздачи, за которые спасибо hexagen.
Используемый софт: MKVtool, BeSweet, Sony Vegas 10
Сэмпл: http://multi-up.com/1043219
Тип релиза: BDRip 1080p
Контейнер: MKV
Видео: AVC, 9500 Кбит/сек, 1920 x 1040, 23.976 fps
Аудио: Russian (Dolby AC3, 2 ch), 192 Kbp
Аудио 2: English, DTS, 1510 Кбит/сек (6 ch), 48 kHz
Формат субтитров: UTF-8
MediaInfo
Формат : Matroska
Версия формата : Version 2
Размер файла : 10,3 Гбайт
Продолжительность : 2 ч. 11 м.
Общий поток : 11,2 Мбит/сек
Дата кодирования : UTC 2015-04-11 10:46:19
Программа кодирования : mkvmerge v7.5.0 ('Glass Culture') 32bit built on Jan 4 2015 16:37:25
Библиотека кодирования : libebml v1.3.1 + libmatroska v1.4.2
_STATISTICS_WRITING_APP : mkvmerge v7.5.0 ('Glass Culture') 32bit built on Jan 4 2015 16:37:25
_STATISTICS_WRITING_DATE_UTC : 2015-04-11 10:46:19
_STATISTICS_TAGS : BPS DURATION NUMBER_OF_FRAMES NUMBER_OF_BYTES
DURATION : 02:05:14.997000000
NUMBER_OF_FRAMES : 1434
NUMBER_OF_BYTES : 49491
Видео
Идентификатор : 1
Формат : AVC
Формат/Информация : Advanced Video Codec
Профиль формата : High@L4.1
Параметр CABAC формата : Да
Параметр ReFrames формата : 4 кадра
Идентификатор кодека : V_MPEG4/ISO/AVC
Продолжительность : 2 ч. 11 м.
Битрейт : 9500 Кбит/сек
Ширина : 1920 пикселей
Высота : 1040 пикселей
Соотношение сторон : 1,85:1
Режим частоты кадров : Постоянный
Частота кадров : 23,976 кадра/сек
Цветовое пространство : YUV
Субдискретизация насыщенности : 4:2:0
Битовая глубина : 8 бит
Тип развёртки : Прогрессивная
Бит/(Пиксели*Кадры) : 0.198
Размер потока : 8,52 Гбайт (83%)
Библиотека кодирования : x264 core 146 r2538 121396c
Настройки программы : cabac=1 / ref=4 / deblock=1:-3:-3 / analyse=0x3:0x133 / me=umh / subme=10 / psy=1 / psy_rd=1.15:0.05 / mixed_ref=1 / me_range=32 / chroma_me=1 / trellis=2 / 8x8dct=1 / cqm=0 / deadzone=21,11 / fast_pskip=0 / chroma_qp_offset=-3 / threads=6 / lookahead_threads=1 / sliced_threads=0 / nr=0 / decimate=1 / interlaced=0 / bluray_compat=0 / constrained_intra=0 / bframes=7 / b_pyramid=2 / b_adapt=2 / b_bias=0 / direct=3 / weightb=1 / open_gop=0 / weightp=2 / keyint=240 / keyint_min=23 / scenecut=40 / intra_refresh=0 / rc_lookahead=40 / rc=2pass / mbtree=0 / bitrate=9500 / ratetol=1.0 / qcomp=0.60 / qpmin=0 / qpmax=69 / qpstep=4 / cplxblur=20.0 / qblur=0.5 / vbv_maxrate=50000 / vbv_bufsize=50000 / nal_hrd=none / filler=0 / ip_ratio=1.40 / pb_ratio=1.20 / aq=1:1.00
Язык : Russian
Default : Да
Forced : Нет
_STATISTICS_WRITING_APP : mkvmerge v7.5.0 ('Glass Culture') 32bit built on Jan 4 2015 16:37:25
_STATISTICS_WRITING_DATE_UTC : 2015-04-11 10:46:19
_STATISTICS_TAGS : BPS DURATION NUMBER_OF_FRAMES NUMBER_OF_BYTES
DURATION : 02:11:32.176000000
NUMBER_OF_FRAMES : 189223
NUMBER_OF_BYTES : 9367330406
Аудио #1
Идентификатор : 2
Формат : AC-3
Формат/Информация : Audio Coding 3
Расширение режима : CM (complete main)
Параметр Endianness формата : Big
Идентификатор кодека : A_AC3
Продолжительность : 2 ч. 11 м.
Вид битрейта : Постоянный
Битрейт : 192 Кбит/сек
Каналы : 2 канала
Расположение каналов : Front: L R
Частота : 48,0 КГц
Битовая глубина : 16 бит
Метод сжатия : С потерями
Размер потока : 181 Мбайт (2%)
Заголовок : Russian
Язык : Russian
Default : Да
Forced : Нет
Аудио #2
Идентификатор : 3
Формат : DTS
Формат/Информация : Digital Theater Systems
Режим : 16
Параметр Endianness формата : Big
Идентификатор кодека : A_DTS
Продолжительность : 2 ч. 11 м.
Вид битрейта : Постоянный
Битрейт : 1510 Кбит/сек
Каналы : 6 каналов
Расположение каналов : Front: L C R, Side: L R, LFE
Частота : 48,0 КГц
Битовая глубина : 24 бит
Метод сжатия : С потерями
Размер потока : 1,39 Гбайт (13%)
Заголовок : English
Язык : English
Default : Нет
Forced : Нет
Текст #1
Идентификатор : 4
Формат : UTF-8
Идентификатор кодека : S_TEXT/UTF8
Идентификатор кодека/Информация : UTF-8 Plain Text
Язык : Russian
Default : Нет
Forced : Нет
Текст #2
Идентификатор : 5
Формат : UTF-8
Идентификатор кодека : S_TEXT/UTF8
Идентификатор кодека/Информация : UTF-8 Plain Text
Язык : English
Default : Нет
Forced : Нет
Меню
00:00:00.000 : en:Chapter 1
00:10:37.595 : en:Chapter 2
00:19:02.266 : en:Chapter 3
00:29:33.772 : en:Chapter 4
00:39:21.317 : en:Chapter 5
00:49:06.360 : en:Chapter 6
00:59:00.870 : en:Chapter 7
01:07:52.651 : en:Chapter 8
01:18:07.808 : en:Chapter 9
01:28:24.590 : en:Chapter 10
01:38:11.051 : en:Chapter 11
01:47:12.884 : en:Chapter 12
01:58:40.154 : en:Chapter 13
02:06:58.819 : en:Chapter 14
Скриншоты
Скачать

Скачать торрент!

Как скачивать? · Что такое торрент? · Рейтинг и ограничения

Сайт не распространяет и не хранит электронные версии произведений, а лишь предоставляет доступ к создаваемому пользователями каталогу ссылок на торрент-файлы, которые содержат только списки хеш-сумм

[Профиль] [ЛС]
Показать сообщения:    
Ответить на тему

Текущее время: Сегодня 18:25

Часовой пояс: GMT + 4



Вы не можете начинать темы
Вы не можете отвечать на сообщения
Вы не можете редактировать свои сообщения
Вы не можете удалять свои сообщения
Вы не можете голосовать в опросах
Вы не можете прикреплять файлы к сообщениям
Вы не можете скачивать файлы