Фокус / Focus (Гленн Фикарра, Джон Рекуа / Glenn Ficarra, John Requa) [2015, США, мелодрама, комедия, криминал, WEBRip] Dub (line)

Ответить на тему
 
Автор Сообщение

user ®

Стаж: 7 лет 7 месяцев

Сообщений: 20008

Пост Пост: #1 от 14-Апр-2015 01:06

[Цитировать]

Фокус / Focus
Страна: США
Жанр: драма, мелодрама, комедия, криминал
Год выпуска: 2015
Продолжительность: 01:44:37
Перевод: Профессиональный (дублированный) (line)
Cубтитры: Присуствуют неотключаемые китайские субтитры
Оригинальная аудиодорожка: нет
Режиссер: Гленн Фикарра, Джон Рекуа / Glenn Ficarra, John Requa
В ролях: Уилл Смит, Марго Робби, Родриго Санторо, Джералд МакРэйни, Б.Д. Вонг, Роберт Тейлор, Бреннан Браун, Адриан Мартинес, Лаура Флэннери, Стефани Онор

Описание: История об опытном мошеннике, который влюбляется в девушку, делающую первые шаги на поприще нелегального отъема средств у граждан. Отношения становятся для них проблемой, когда обнаруживается, что романтика мешает их нечестному бизнесу.
Сэмпл: http://multi-up.com/1038875
Качество видео: WEBRip
Формат видео: AVI
Видео: 1735 Kb/s, 720x400, 16:9, 30.000 fps, 0.201 Bits/(Pixel*Frame)
Аудио: AC3, 128 Kb/s, (2 ch), 48.0 KHz
MediaInfo
General
Complete name : E:\Фильмы\F0kus.2015.D.WEBRip.1400MB.avi
Format : AVI
Format/Info : Audio Video Interleave
File size : 1.37 GiB
Duration : 1h 44mn
Overall bit rate : 1 875 Kbps
Writing application : VirtualDubMod 1.5.10.2 (build 2540/release)
Writing library : VirtualDubMod build 2540/release
Video
ID : 0
Format : MPEG-4 Visual
Format profile : Advanced Simple@L5
Format settings, BVOP : 2
Format settings, QPel : No
Format settings, GMC : No warppoints
Format settings, Matrix : Default (MPEG)
Codec ID : XVID
Codec ID/Hint : XviD
Duration : 1h 44mn
Bit rate : 1 735 Kbps
Width : 720 pixels
Height : 400 pixels
Display aspect ratio : 16:9
Frame rate : 30.000 fps
Color space : YUV
Chroma subsampling : 4:2:0
Bit depth : 8 bits
Scan type : Progressive
Compression mode : Lossy
Bits/(Pixel*Frame) : 0.201
Stream size : 1.27 GiB (93%)
Writing library : XviD 1.2.1 (UTC 2008-12-04)
Audio
ID : 1
Format : AC-3
Format/Info : Audio Coding 3
Mode extension : CM (complete main)
Format settings, Endianness : Big
Codec ID : 2000
Duration : 1h 44mn
Bit rate mode : Constant
Bit rate : 128 Kbps
Channel(s) : 2 channels
Channel positions : Front: L R
Sampling rate : 48.0 KHz
Bit depth : 16 bits
Compression mode : Lossy
Stream size : 95.8 MiB (7%)
Alignment : Split accross interleaves
Interleave, duration : 33 ms (1.00 video frame)
Interleave, preload duration : 500 ms
Скриншот c названием фильма Скриншоты
Скачать

Скачать торрент!

Как скачивать? · Что такое торрент? · Рейтинг и ограничения

Сайт не распространяет и не хранит электронные версии произведений, а лишь предоставляет доступ к создаваемому пользователями каталогу ссылок на торрент-файлы, которые содержат только списки хеш-сумм

[Профиль] [ЛС]
Показать сообщения:    
Ответить на тему

Текущее время: Сегодня 20:12

Часовой пояс: GMT + 4



Вы не можете начинать темы
Вы не можете отвечать на сообщения
Вы не можете редактировать свои сообщения
Вы не можете удалять свои сообщения
Вы не можете голосовать в опросах
Вы не можете прикреплять файлы к сообщениям
Вы не можете скачивать файлы