Работа в лесу! / Работа с древесиной! / Wood Job! (Синобу Ягути / Shinobu Yaguchi) [2014, Япония, комедия, HDRip] VO (aleksei80)

Ответить на тему
 
Автор Сообщение

user ®

Стаж: 13 лет

Сообщений: 15071

Пост Пост: #1 от 13-Апр-2015 22:00

[Цитировать]

Работа в лесу! / Работа с древесиной! / Wood Job!
Страна: Япония
Жанр: комедия
Год выпуска: 2014
Продолжительность: 01:56:06
Перевод: Одноголосый закадровый aleksei80
Cубтитры: нет
Оригинальная аудиодорожка: нет
Режиссер: Синобу Ягути / Shinobu Yaguchi
В ролях: Масами Нагасава
Сёта Сомэтани
Хидеаки Ито
Нана Сэйно
Арифуку Масаси
Нисида Наоми
Описание: Хирано Юки - городской мальчик до мозга костей. Живет себе припеваючи, пока в один прекрасный день не проваливает вступительные. А потом его ещё и девушка бросает. Чем не повод напиться с друзьями? А в порыве чувств Юки может плюнуть на всю прошлую жизнь, и пойти работать в лес.
А что такого? Образование побоку, опыт не важен – желание есть, и нет проблем. Вот только поведясь на брошюру с красивой девчонкой, наш герой никак не ожидает, что работать придётся, да ещё в поте лица, дабы доказать, что ты не лыком шит. И ждут его приключения забавные и не очень. А что ещё может ждать неудачника, который умудрился утопить телефон в сломанном зонтике с водой, подвергнуться нападению пиявок и быть укушенным змеей в ухо? И вообще, если неприятности случиться могут - Юки они гарантированы. Валить лес и выжить! Любой ценой! ©Морриган
Сэмпл: http://multi-up.com/1043578
Качество видео: HDRip
Формат видео: AVI
Видео: XVID, 720x400, 16:9, 24.000 fps, 1 597 Kbps
Аудио: MP3, 44.1 KHz, 192 Kbps, 2 channels
MediaInfo
General
Complete name : C:\Users\котэ\Downloads\раздача на рутрекере\Работа в лесу!.2014.avi
Format : AVI
Format/Info : Audio Video Interleave
File size : 1.46 GiB
Duration : 1h 56mn
Overall bit rate : 1 798 Kbps
Writing application : MEncoder Sherpya-SVN-r27811-4.2.5
Writing library : VirtualDub build 32842/release
Video
ID : 0
Format : MPEG-4 Visual
Format profile : Simple@L3
Format settings, BVOP : No
Format settings, QPel : No
Format settings, GMC : No warppoints
Format settings, Matrix : Default (H.263)
Codec ID : XVID
Codec ID/Hint : XviD
Duration : 1h 56mn
Bit rate : 1 597 Kbps
Width : 720 pixels
Height : 400 pixels
Display aspect ratio : 16:9
Frame rate : 24.000 fps
Color space : YUV
Chroma subsampling : 4:2:0
Bit depth : 8 bits
Scan type : Progressive
Compression mode : Lossy
Bits/(Pixel*Frame) : 0.231
Stream size : 1.29 GiB (89%)
Writing library : XviD 1.1.2 (UTC 2006-11-01)
Audio
ID : 1
Format : MPEG Audio
Format version : Version 1
Format profile : Layer 3
Mode : Joint stereo
Mode extension : MS Stereo
Codec ID : 55
Codec ID/Hint : MP3
Duration : 1h 56mn
Bit rate mode : Constant
Bit rate : 192 Kbps
Channel(s) : 2 channels
Sampling rate : 44.1 KHz
Compression mode : Lossy
Stream size : 159 MiB (11%)
Alignment : Split accross interleaves
Interleave, duration : 42 ms (1.00 video frame)
Interleave, preload duration : 500 ms
Writing library : LAME3.97
Скриншот c названием фильма Скриншоты
Скачать

Скачать торрент! Работа в лесу! / Работа с древесиной! / Wood Job! (Синобу Ягути / Shinobu Yaguchi) [2014, Япония, комедия, HDRip] VO (aleksei80)

Как скачивать? · Что такое торрент? · Рейтинг и ограничения

Сайт не распространяет и не хранит электронные версии произведений, а лишь предоставляет доступ к создаваемому пользователями каталогу ссылок на торрент-файлы, которые содержат только списки хеш-сумм

[Профиль] [ЛС]
Показать сообщения:    
Ответить на тему

Текущее время: Сегодня 21:23

Часовой пояс: GMT + 4



Вы не можете начинать темы
Вы не можете отвечать на сообщения
Вы не можете редактировать свои сообщения
Вы не можете удалять свои сообщения
Вы не можете голосовать в опросах
Вы не можете прикреплять файлы к сообщениям
Вы не можете скачивать файлы