Местные ребята / Local Boys (Рон Молер / Ron Moler) [2002, США, драма, WEB-DL 720p] VO + Original Eng

Ответить на тему
 
Автор Сообщение

user ®

Стаж: 7 лет 7 месяцев

Сообщений: 20008

Пост Пост: #1 от 13-Апр-2015 18:54

[Цитировать]

Местные ребята / Local Boys
-Страна: США
Жанр: драма
Год выпуска: 2002
Продолжительность: 01:39:36-Перевод: Любительский (одноголосый) Георгий Самойлов
Оригинальная аудиодорожка: английский-Режиссер: Рон Молер / Ron Moler-В ролях: Эрик Кристиан Олсен, Стэйси Эдвардс, Джереми Самптер, Джузеппе Эндрюс, Чака Форман, Лукас Бенкен, Арчи Као, Шелби Феннер, Хилари Сальваторе/, Натали Рэмси-Описание:
Двенадцатилетний Скит проводит большую часть времени со своим старшим братом Рэнди и его друзьями, для которых сёрфинг становится главным времяпрепровождением в последнее свободное лето перед поступлением в колледж или поисками работы. Их мать после смерти отца вынуждена работать допоздна. И Рэнди, и Скит главным образом предоставлены самим себе. На свой двенадцатый день рождения Скит получает в подарок свою первую доску для сёрфинга, но старший брат не слишком стремится помочь в его неуверенных попытках. Неожиданное знакомство с когда-то знаменитым сёрфером Джимом Уэсли, который приходит на помощь Скиту, резко меняет жизнь мальчика, тяжело переживающего недавнюю потерю отца. Рэнди, для которого Джим долгое время был кумиром, настороженно относится к завязавшейся дружбе между ними, и отношения ещё более накаляются, когда Джим встречается с их матерью...-Доп. информация: аудио дорожка взята [url=http://***/forum/viewtopic.php?t=1768141]http://***/forum/viewtopic.php?t=1768141[/url]-Сэмпл: Скачать-Тип релиза: WEB-DL 720p
Контейнер: MKV-Видео: 1280x692 (1.85:1); 3926 Kbps; 23.976 fps; 0.185 bpp
Аудио 1: Russian; AC3; 48.0 KHz; 2ch; 192 Kbps
Аудио 2: English; AC3; 48.0 KHz; 5.1ch; 384 Kbps
MediaInfo
Format : Matroska
Format version : Version 4 / Version 2
File size : 3.20 GiB
Duration : 1h 39mn
Overall bit rate : 4 593 Kbps
Movie name : Local Boys (2002)
Encoded date : UTC 2015-03-14 07:44:03
Writing application : mkvmerge v7.2.0 ('On Every Street') 64bit built on Sep 13 2014 15:52:10
Writing library : libebml v1.3.0 + libmatroska v1.4.1
DURATION : 01:39:36.416000000
NUMBER_OF_FRAMES : 186763
NUMBER_OF_BYTES : 143433984
_STATISTICS_WRITING_APP : mkvmerge v7.2.0 ('On Every Street') 64bit built on Sep 13 2014 15:52:10
_STATISTICS_WRITING_DATE_UTC : 2015-03-14 07:44:03
_STATISTICS_TAGS : BPS DURATION NUMBER_OF_FRAMES NUMBER_OF_BYTES
Video
ID : 1
Format : AVC
Format/Info : Advanced Video Codec
Format profile : High@L3.1
Format settings, CABAC : No
Format settings, ReFrames : 2 frames
Format settings, GOP : N=1
Codec ID : V_MPEG4/ISO/AVC
Duration : 1h 39mn
Bit rate : 3 926 Kbps
Width : 1 280 pixels
Height : 692 pixels
Display aspect ratio : 1.85:1
Frame rate mode : Constant
Frame rate : 23.976 fps
Color space : YUV
Chroma subsampling : 4:2:0
Bit depth : 8 bits
Scan type : Progressive
Bits/(Pixel*Frame) : 0.185
Stream size : 2.73 GiB (85%)
Title : Local.Boys.2002.720p.WEB-DL.DD5.1.H264-SUPERBAD
Language : English
Default : Yes
Forced : No
Color primaries : BT.709
Transfer characteristics : BT.709
Matrix coefficients : BT.709
Audio #1
ID : 2
Format : AC-3
Format/Info : Audio Coding 3
Mode extension : CM (complete main)
Format settings, Endianness : Big
Codec ID : A_AC3
Duration : 1h 39mn
Bit rate mode : Constant
Bit rate : 192 Kbps
Channel(s) : 2 channels
Channel positions : Front: L R
Sampling rate : 48.0 KHz
Bit depth : 16 bits
Compression mode : Lossy
Stream size : 137 MiB (4%)
Title : VO Георгий Самойлов
Language : Russian
Default : Yes
Forced : No
Audio #2
ID : 3
Format : AC-3
Format/Info : Audio Coding 3
Mode extension : CM (complete main)
Format settings, Endianness : Big
Codec ID : A_AC3
Duration : 1h 39mn
Bit rate mode : Constant
Bit rate : 384 Kbps
Channel(s) : 6 channels
Channel positions : Front: L C R, Side: L R, LFE
Sampling rate : 48.0 KHz
Bit depth : 16 bits
Compression mode : Lossy
Stream size : 274 MiB (8%)
Title : AC3 5.1
Language : English
Default : No
Forced : No
Menu
00:00:00.000 : en:Opening Credits
00:03:28.000 : en:The Big Boys
00:10:23.000 : en:Ain't Happening Here
00:22:18.000 : en:Professional Help
00:31:49.000 : en:Visit From Jim
00:39:02.000 : en:Party Is Over
00:49:00.000 : en:Out To Dinner
00:55:36.000 : en:1940 Woody
01:02:24.000 : en:Mexico
01:06:46.000 : en:BBQ On The Beach
01:23:26.000 : en:Surfing Solo
01:36:03.000 : en:End Credits
Скриншоты
Скачать

Скачать торрент!

Как скачивать? · Что такое торрент? · Рейтинг и ограничения

Сайт не распространяет и не хранит электронные версии произведений, а лишь предоставляет доступ к создаваемому пользователями каталогу ссылок на торрент-файлы, которые содержат только списки хеш-сумм

[Профиль] [ЛС]
Показать сообщения:    
Ответить на тему

Текущее время: Сегодня 18:12

Часовой пояс: GMT + 4



Вы не можете начинать темы
Вы не можете отвечать на сообщения
Вы не можете редактировать свои сообщения
Вы не можете удалять свои сообщения
Вы не можете голосовать в опросах
Вы не можете прикреплять файлы к сообщениям
Вы не можете скачивать файлы