Кадр / The Frame (Джеймин Винанс / Jamin Winans) [2014, США, криминал, триллер, драма, BDRemux 1080p] DVO (DeadSno & den904) + Sub Eng + Original Eng + Commentary (Eng)

Ответить на тему
 
Автор Сообщение

user ®

Стаж: 7 лет 7 месяцев

Сообщений: 20008

Пост Пост: #1 от 13-Апр-2015 18:54

[Цитировать]

Кадр / The Frame
Страна: США
Жанр: криминал, триллер, драма
Год выпуска: 2014
Продолжительность: 02:07:07
Перевод: Любительский (двухголосый закадровый) DeadSno & den904
Cубтитры: английские [SDH]
Оригинальная аудиодорожка: английский
-
Режиссер: Джеймин Винанс / Jamin Winans
В ролях: Дэвид Карранза, Тиффани Мюлэм, Кэлвин Бартлетт, Крис Келли, Энтони Нуччио, Шона Эрп, Джордан Долл, Кент Рэнделл, Ивэн Лаи, Меган Хеффернан
-
Описание: Двое незнакомцев проживают свои жизни в разных вселенных, но невероятным образом они сталкиваются. Алекс - преступник, работающий на опасный картель, и Сэм - фельдшер, пытающаяся спасти мир и убегающая от своего прошлого. Неожиданно для себя они становятся участниками реального шоу, наблюдая жизни друг друга по телевизору. Кто же сценарист и постановщик этого представления? И в чем его смысл?

Внимание!!! Присутствует ненормативная лексика!!!
Тип релиза: BDRemux 1080p
Контейнер: MKV
Видео: MPEG-4 AVC / NTSC 16:9 / 1920x1080 (1,85:1) / 19974kbps / 23,976 fps / High@L4.1
Аудио 1: Russian / AC3 / 48 kHz / 2.0 Ch / 192 kbps / 16 bit / DVO
Аудио 2: English / DTS-HD Master Audio / 2.0 Ch / 48 kHz / 2101 kbps / 24-bit (DTS Core: 2.0 Ch / 48 kHz / 1509 kbps / 24-bit) / Original
Аудио 3: English / AC3 / 48 kHz / 2.0 Ch / 192 kbps / 16 bit / Commentary
Формат субтитров: softsub (SRT)
Навигация по главам: есть

Сэмпл MediaInfo
Общее
Уникальный идентификатор : 228601270263141565335578135192520688088 (0xABFB00CFE949AB86A3E77CEEE65501D8)
Полное имя : F:\The Frame.2014.BDRemux.1080p.mkv
Формат : Matroska
Версия формата : Version 4 / Version 2
Размер файла : 19,9 Гбайт
Продолжительность : 2 ч. 7 м.
Режим общего битрейта : Переменный
Общий поток : 22,5 Мбит/сек
Дата кодирования : UTC 2015-04-10 18:27:06
Программа кодирования : mkvmerge v7.8.0 ('River Man') 64bit built on Mar 27 2015 16:31:37
Библиотека кодирования : libebml v1.3.1 + libmatroska v1.4.2
DURATION : 01:56:58.845000000
NUMBER_OF_FRAMES : 894
NUMBER_OF_BYTES : 24173
_STATISTICS_WRITING_APP : mkvmerge v7.8.0 ('River Man') 64bit built on Mar 27 2015 16:31:37
_STATISTICS_WRITING_DATE_UTC : 2015-04-10 18:27:06
_STATISTICS_TAGS : BPS DURATION NUMBER_OF_FRAMES NUMBER_OF_BYTES
Видео
Идентификатор : 1
Формат : AVC
Формат/Информация : Advanced Video Codec
Профиль формата : High@L4.1
Параметр CABAC формата : Да
Параметр ReFrames формата : 4 кадра
Параметр GOP формата : M=3, N=12
Идентификатор кодека : V_MPEG4/ISO/AVC
Продолжительность : 2 ч. 7 м.
Вид битрейта : Переменный
Максимальный битрейт : 38,0 Мбит/сек
Ширина : 1920 пикселей
Высота : 1080 пикселей
Соотношение сторон : 16:9
Режим частоты кадров : Постоянный
Частота кадров : 23,976 кадра/сек
Цветовое пространство : YUV
Субдискретизация насыщенности : 4:2:0
Битовая глубина : 8 бит
Тип развёртки : Прогрессивная
Язык : English
Default : Да
Forced : Нет
Аудио #1
Идентификатор : 2
Формат : AC-3
Формат/Информация : Audio Coding 3
Расширение режима : CM (complete main)
Параметр Endianness формата : Big
Идентификатор кодека : A_AC3
Продолжительность : 2 ч. 7 м.
Вид битрейта : Постоянный
Битрейт : 192 Кбит/сек
Каналы : 2 канала
Расположение каналов : Front: L R
Частота : 48,0 КГц
Битовая глубина : 16 бит
Метод сжатия : С потерями
Размер потока : 175 Мбайт (1%)
Заголовок : DeadSno & den904
Язык : Russian
Default : Да
Forced : Нет
Аудио #2
Идентификатор : 3
Формат : DTS
Формат/Информация : Digital Theater Systems
Профиль формата : MA / Core
Режим : 16
Параметр Endianness формата : Big
Идентификатор кодека : A_DTS
Продолжительность : 2 ч. 7 м.
Вид битрейта : Переменный
Битрейт : Неизвестно / 1509 Кбит/сек
Каналы : 2 канала
Расположение каналов : Front: L R
Частота : 48,0 КГц
Битовая глубина : 24 бит
Метод сжатия : Без потерь / Lossy
Заголовок : Original
Язык : English
Default : Нет
Forced : Нет
Аудио #3
Идентификатор : 4
Формат : AC-3
Формат/Информация : Audio Coding 3
Расширение режима : CM (complete main)
Параметр Endianness формата : Big
Идентификатор кодека : A_AC3
Продолжительность : 2 ч. 7 м.
Вид битрейта : Постоянный
Битрейт : 192 Кбит/сек
Каналы : 2 канала
Расположение каналов : Front: L R
Частота : 48,0 КГц
Битовая глубина : 16 бит
Метод сжатия : С потерями
Размер потока : 175 Мбайт (1%)
Заголовок : Original / Commentary
Язык : English
Default : Нет
Forced : Нет
Текст
Идентификатор : 5
Формат : UTF-8
Идентификатор кодека : S_TEXT/UTF8
Идентификатор кодека/Информация : UTF-8 Plain Text
Заголовок : Original / SDH
Язык : English
Default : Нет
Forced : Нет
Меню
00:00:00.000 : en:
00:07:05.299 : en:
00:09:08.506 : en:
00:13:42.571 : en:
00:18:50.879 : en:
00:22:56.375 : en:
00:27:44.204 : en:
00:33:23.334 : en:
00:37:09.977 : en:
00:43:36.447 : en:
00:46:14.605 : en:
00:52:22.848 : en:
00:54:00.528 : en:
00:58:51.027 : en:
01:02:03.177 : en:
01:10:39.735 : en:
01:15:41.912 : en:
01:21:08.572 : en:
01:25:52.480 : en:
01:29:08.343 : en:
01:36:47.134 : en:
01:41:02.014 : en:
01:45:02.462 : en:
01:47:14.261 : en:
01:51:59.963 : en:
01:53:18.291 : en:
01:58:40.446 : en:
02:03:06.170 : en:
Скриншоты
Скачать

Скачать торрент!

Как скачивать? · Что такое торрент? · Рейтинг и ограничения

Сайт не распространяет и не хранит электронные версии произведений, а лишь предоставляет доступ к создаваемому пользователями каталогу ссылок на торрент-файлы, которые содержат только списки хеш-сумм

[Профиль] [ЛС]
Показать сообщения:    
Ответить на тему

Текущее время: Сегодня 22:25

Часовой пояс: GMT + 4



Вы не можете начинать темы
Вы не можете отвечать на сообщения
Вы не можете редактировать свои сообщения
Вы не можете удалять свои сообщения
Вы не можете голосовать в опросах
Вы не можете прикреплять файлы к сообщениям
Вы не можете скачивать файлы