Боже, благослови Америку! / God Bless America (Бобкэт Голдтуэйт / Bobcat Goldthwait) [2011, США, драма, комедия, криминал, BDRip 720p] MVO (R5) + DVO (OzzTV) + VO (Киреев) + Sub Rus, Eng + Original Eng

Ответить на тему
 
Автор Сообщение

user ®

Стаж: 7 лет 7 месяцев

Сообщений: 20008

Пост Пост: #1 от 13-Апр-2015 18:54

[Цитировать]

Боже, благослови Америку! / God Bless America
Страна: USA
Студия: Darko Entertainment
Жанр: Драма, комедия, криминал
Год выпуска: 2011
Продолжительность: 01:44:22
Перевод: Профессиональный (многоголосый закадровый) R5
Перевод 2: Профессиональный (двухголосый закадровый) OzzTV
Перевод 3: Одноголосый закадровый А. Киреев по переводу Дмитрия Goblin'a Пучкова
Cубтитры: Russian [Лепра, Юрий Гришин, KingFisheR], English [Full, SDH]
Оригинальная аудиодорожка: английский
Режиссер: Боб Голдтуэйт / Bob Goldthwait
В ролях: Джоэл Мюррэй, Тара Барр, Маккензи Брук Смит, Мелинда Пейдж Хэмилтон, Рич МакДональд, Мэдди Хассон, Ларри Миллер, Дори Бартон, Трэвис Уэстер, Лорен Бенц Филлипс
Описание: Фрэнк просто выдохся: сосед-невежа, постоянный плач ребенка, глупая болтовня коллег, и в довершение всего — ещё и опухоль мозга. Достав пистолет, уставший от жизни герой находит для себя неожиданного друга и союзника по имени Рокси. Это девушка-студентка, проявляющая нетерпимость к идиотам вокруг и мыслящая в точности, как и Фрэнк. Он даёт ей уроки стрельбы, а она ему — цели, которые нужно поразить.

Сэмпл: Яндекс.Диск
Тип релиза: BDRip 720p
Контейнер: MKV
Видео: AVC, 1280x546, 2.35:1, 23.976 fps, 4485 Kbps
Аудио: Russian, 48 kHz, AC3, 2/0 (L,R) + LFE ch, ~448.00 kbps avg [R5]
Аудио 2: Russian, 48 kHz, AC3, 3/2 (L,C,R,l,r) + LFE ch, ~640.00 kbps avg [OzzTV]
Аудио 3: Russian, 48 kHz, AC3, 3/2 (L,C,R,l,r) + LFE ch, ~448.00 kbps avg [A. Kireev]
Аудио 4: English, 48 kHz, AC3, 3/2 (L,C,R,l,r) + LFE ch, ~640.00 kbps avg
Формат субтитров: softsub (SRT)
MediaInfo
General
Unique ID : 202969472329822678022209828528142183633 (0x98B27F9ACA1386258A79F81460006CD1)
Complete name : /Users/Pavel/Movies/God.Bless.America.2011.720p.BluRay.3xRus.Eng.mkv
Format : Matroska
Format version : Version 2
File size : 5.45 GiB
Duration : 1h 44mn
Overall bit rate : 7 469 Kbps
Encoded date : UTC 2012-08-12 12:08:34
Writing application : mkvmerge v5.5.0 ('Healer') built on Apr 6 2012 21:43:24
Writing library : libebml v1.2.3 + libmatroska v1.3.0
Video
ID : 1
Format : AVC
Format/Info : Advanced Video Codec
Format profile : High@L4.1
Format settings, CABAC : Yes
Format settings, ReFrames : 9 frames
Codec ID : V_MPEG4/ISO/AVC
Duration : 1h 44mn
Bit rate : 5 290 Kbps
Width : 1 280 pixels
Height : 546 pixels
Display aspect ratio : 2.35:1
Frame rate mode : Constant
Frame rate : 23.976 fps
Color space : YUV
Chroma subsampling : 4:2:0
Bit depth : 8 bits
Scan type : Progressive
Bits/(Pixel*Frame) : 0.316
Stream size : 3.75 GiB (69%)
Title : God.Bless.America.2011.720p.BluRay.DD5.1.x264-HiDt
Writing library : x264 core 125 r2200 999b753
Encoding settings : cabac=1 / ref=9 / deblock=1:-3:-3 / analyse=0x3:0x113 / me=tesa / subme=11 / psy=1 / psy_rd=0.91:0.00 / mixed_ref=1 / me_range=32 / chroma_me=1 / trellis=2 / 8x8dct=1 / cqm=0 / deadzone=21,11 / fast_pskip=0 / chroma_qp_offset=-2 / threads=12 / lookahead_threads=2 / sliced_threads=0 / nr=0 / decimate=1 / interlaced=0 / bluray_compat=0 / constrained_intra=0 / bframes=6 / b_pyramid=2 / b_adapt=2 / b_bias=0 / direct=3 / weightb=1 / open_gop=0 / weightp=2 / keyint=240 / keyint_min=23 / scenecut=40 / intra_refresh=0 / rc_lookahead=80 / rc=2pass / mbtree=1 / bitrate=5290 / ratetol=1.0 / qcomp=0.70 / qpmin=0 / qpmax=69 / qpstep=4 / cplxblur=20.0 / qblur=0.5 / ip_ratio=1.40 / aq=1:0.90 / zones=142945,150145,b=0.1
Language : English
Default : No
Forced : No
Audio #1
ID : 2
Format : AC-3
Format/Info : Audio Coding 3
Mode extension : CM (complete main)
Format settings, Endianness : Big
Codec ID : A_AC3
Duration : 1h 44mn
Bit rate mode : Constant
Bit rate : 448 Kbps
Channel(s) : 2 channels
Channel positions : Front: L R
Sampling rate : 48.0 KHz
Bit depth : 16 bits
Compression mode : Lossy
Stream size : 334 MiB (6%)
Title : Russian R5
Language : Russian
Default : Yes
Forced : No
Audio #2
ID : 3
Format : AC-3
Format/Info : Audio Coding 3
Mode extension : CM (complete main)
Format settings, Endianness : Big
Codec ID : A_AC3
Duration : 1h 44mn
Bit rate mode : Constant
Bit rate : 640 Kbps
Channel(s) : 6 channels
Channel positions : Front: L C R, Side: L R, LFE
Sampling rate : 48.0 KHz
Bit depth : 16 bits
Compression mode : Lossy
Stream size : 478 MiB (9%)
Title : DVO ozz.tv
Language : Russian
Default : No
Forced : No
Audio #3
ID : 4
Format : AC-3
Format/Info : Audio Coding 3
Mode extension : CM (complete main)
Format settings, Endianness : Big
Codec ID : A_AC3
Duration : 1h 44mn
Bit rate mode : Constant
Bit rate : 448 Kbps
Channel(s) : 6 channels
Channel positions : Front: L C R, Side: L R, LFE
Sampling rate : 48.0 KHz
Bit depth : 16 bits
Compression mode : Lossy
Stream size : 334 MiB (6%)
Title : А.Киреев по переводу Дмитрия Goblin'a Пучкова
Language : Russian
Default : No
Forced : No
Audio #4
ID : 5
Format : AC-3
Format/Info : Audio Coding 3
Mode extension : CM (complete main)
Format settings, Endianness : Big
Codec ID : A_AC3
Duration : 1h 44mn
Bit rate mode : Constant
Bit rate : 640 Kbps
Channel(s) : 6 channels
Channel positions : Front: L C R, Side: L R, LFE
Sampling rate : 48.0 KHz
Bit depth : 16 bits
Compression mode : Lossy
Stream size : 478 MiB (9%)
Title : Original
Language : English
Default : No
Forced : No
Text #1
ID : 6
Format : UTF-8
Codec ID : S_TEXT/UTF8
Codec ID/Info : UTF-8 Plain Text
Title : перевод Лепры (Суверенный Лепрозорий)
Language : Russian
Default : No
Forced : No
Text #2
ID : 7
Format : UTF-8
Codec ID : S_TEXT/UTF8
Codec ID/Info : UTF-8 Plain Text
Title : перевод Юрий Гришин
Language : Russian
Default : No
Forced : No
Text #3
ID : 8
Format : UTF-8
Codec ID : S_TEXT/UTF8
Codec ID/Info : UTF-8 Plain Text
Title : Перевод KingFisheR, ред-Stvstas
Language : Russian
Default : No
Forced : No
Text #4
ID : 9
Format : UTF-8
Codec ID : S_TEXT/UTF8
Codec ID/Info : UTF-8 Plain Text
Title : Full
Language : English
Default : No
Forced : No
Text #5
ID : 10
Format : UTF-8
Codec ID : S_TEXT/UTF8
Codec ID/Info : UTF-8 Plain Text
Title : SDH
Language : English
Default : No
Forced : No
Menu
00:00:00.000 : en:Chapter 01
00:06:34.936 : en:Chapter 02
00:18:07.419 : en:Chapter 03
00:27:42.619 : en:Chapter 04
00:37:28.120 : en:Chapter 05
00:45:35.023 : en:Chapter 06
00:53:57.067 : en:Chapter 07
01:11:50.431 : en:Chapter 08
01:18:16.566 : en:Chapter 09
01:28:09.617 : en:Chapter 10
01:31:49.921 : en:Chapter 11
01:39:28.671 : en:Chapter 12
Скриншоты
Скачать

Скачать торрент!

Как скачивать? · Что такое торрент? · Рейтинг и ограничения

Сайт не распространяет и не хранит электронные версии произведений, а лишь предоставляет доступ к создаваемому пользователями каталогу ссылок на торрент-файлы, которые содержат только списки хеш-сумм

[Профиль] [ЛС]
Показать сообщения:    
Ответить на тему

Текущее время: Сегодня 04:10

Часовой пояс: GMT + 4



Вы не можете начинать темы
Вы не можете отвечать на сообщения
Вы не можете редактировать свои сообщения
Вы не можете удалять свои сообщения
Вы не можете голосовать в опросах
Вы не можете прикреплять файлы к сообщениям
Вы не можете скачивать файлы