Гринч - похититель Рождества / How the Grinch Stole Christmas (Рон Ховард / Ron Howard) [2000, США, Германия, мюзикл, фэнтези, комедия, BDRip 1080p] Dub + 3x MVO (2х Карусель, Премьер-Видео) + AVO (Живов) + Original Eng + Comm + Sub (2x Rus, Eng)

Ответить на тему
 
Автор Сообщение

user ®

Стаж: 7 лет 7 месяцев

Сообщений: 20008

Пост Пост: #1 от 13-Апр-2015 18:54

[Цитировать]

Гринч - похититель Рождества / How the Grinch Stole Christmas- Год выпуска: 2000
Страна: США, Германия
Жанр: мюзикл, фэнтези, комедия
Продолжительность: 01:44:56
Перевод: Профессиональный (полное дублирование)
+ Профессиональный (многоголосый, закадровый) Карусель #1
+ Профессиональный (многоголосый, закадровый) Карусель #2
+ Профессиональный (многоголосый, закадровый) Премьер-Видео
+ Авторский одноголосый Ю.Живов
Оригинальная аудиодорожка: English
Субтитры: Russian (2 варинта), English, English (комментарии)-Режиссер: Рон Ховард / Ron Howard
В ролях: Джим Керри, Тейлор Момсен, Джеффри Тэмбор, Кристин Барански, Билл Ирвин, Молли Шеннон, Клинт Ховард, Джош Райан Эванс, Минди Стерлинг, Рэйчел Уинфри
О фильме: Жил-был в городе Ктограде человечек, и звали его – Гринч. Был он весь зеленый и волосатый, никто его не любил. Обиделся Гринч на ктовичей и ушел жить на одинокую, обдуваемую всеми ветрами гору. Сидел там в своей пещере и злился на весь свет. Больше всего Гринч ненавидел Рождество. В то время, как все население Ктограда веселилось от души, барометр и без того всегда плохого настроения Гринча показывал нечто ужасное.
Каждое Рождество становилось для зеленого отшельника страшной пыткой. И вот однажды злобный житель горы решил покончить с этим праздником раз и навсегда. Пока беззаботные ктовичи сладко спали впредпраздничную ночь, вероломный Гринч решил украсть у горожан их Рождество.-Тип релиза: BDRip 1080p
Источник: 1080p BD-Remux (tnx sergey_n)
Контейнер: MKV
Видео: 1920x1040 at 23.976 fps, x264@L4.1, crf, ~15511 kbps avg
Аудио #01: Russian: 48 kHz, AC3, 2/0 (L,R) ch, ~192.00 kbps avg |Полное дублирование|
Аудио #02: Russian: 48 kHz, DTS, 3/2 (L,C,R,l,r) + LFE ch, ~1509.00 kbps avg |Многоголосый закадровый, Карусель #1|
Аудио #03: Russian: 48 kHz, DTS, 3/2 (L,C,R,l,r) + LFE ch, ~1509.00 kbps avg |Многоголосый закадровый, Карусель #2|
Аудио #04: Russian: 48 kHz, AC3, 2/0 (L,R) ch, ~192.00 kbps avg |Многоголосый закадровый, Премьер-Видео|
Аудио #05: Russian: 48 kHz, DTS, 3/2 (L,C,R,l,r) + LFE ch, ~1509.00 kbps avg |Одноголосый закадровый, Ю.Живов|
Аудио #06: English: 48 kHz, DTS, 3/2 (L,C,R,l,r) + LFE ch, ~1509.00 kbps avg |Оригинал|
Аудио #07: English: 48 kHz, AC3, 2/0 (L,R) ch, ~192.00 kbps avg |Комментарии Рона Ховарда|
Семпл-

Скриншоты
-
mInfo
Формат : Matroska
Версия формата : Version 4 / Version 2
Размер файла : 16,2 Гбайт
Продолжительность : 1 ч. 44 м.
Общий поток : 22,1 Мбит/сек
Название фильма : Гринч - похититель Рождества / How the Grinch Stole Christmas (2000) - Release for HDCLUB
Дата кодирования : UTC 2015-04-11 15:06:10
Программа кодирования : mkvmerge v7.0.0 ('Where We Going') 32bit built on Jun 9 2014 15:08:34
Библиотека кодирования : libebml v1.3.0 + libmatroska v1.4.1
DURATION : 01:44:56.320000000
NUMBER_OF_FRAMES : 196760
NUMBER_OF_BYTES : 151111680
_STATISTICS_WRITING_APP : mkvmerge v7.0.0 ('Where We Going') 32bit built on Jun 9 2014 15:08:34
_STATISTICS_WRITING_DATE_UTC : 2015-04-11 15:06:10
_STATISTICS_TAGS : BPS DURATION NUMBER_OF_FRAMES NUMBER_OF_BYTES
Видео
Идентификатор : 1
Формат : AVC
Формат/Информация : Advanced Video Codec
Профиль формата : High@L4.1
Параметр CABAC формата : Да
Параметр ReFrames формата : 4 кадра
Идентификатор кодека : V_MPEG4/ISO/AVC
Продолжительность : 1 ч. 44 м.
Битрейт : 15,1 Мбит/сек
Ширина : 1920 пикселей
Высота : 1040 пикселей
Соотношение сторон : 1,85:1
Режим частоты кадров : Постоянный
Частота кадров : 23,976 кадра/сек
Цветовое пространство : YUV
Субдискретизация насыщенности : 4:2:0
Битовая глубина : 8 бит
Тип развёртки : Прогрессивная
Бит/(Пиксели*Кадры) : 0.315
Размер потока : 11,1 Гбайт (68%)
Заголовок : Гринч - похититель Рождества / How the Grinch Stole Christmas (2000) - Release for HDCLUB
Библиотека кодирования : x264 core 138 r2358 9e941d1
Настройки программы : cabac=1 / ref=4 / deblock=1:-3:-3 / analyse=0x3:0x133 / me=tesa / subme=11 / psy=1 / psy_rd=1.10:0.00 / mixed_ref=1 / me_range=32 / chroma_me=1 / trellis=2 / 8x8dct=1 / cqm=0 / deadzone=21,11 / fast_pskip=0 / chroma_qp_offset=-2 / threads=6 / lookahead_threads=1 / sliced_threads=0 / nr=0 / decimate=1 / interlaced=0 / bluray_compat=0 / constrained_intra=0 / bframes=8 / b_pyramid=2 / b_adapt=2 / b_bias=0 / direct=1 / weightb=1 / open_gop=0 / weightp=2 / keyint=240 / keyint_min=23 / scenecut=40 / intra_refresh=0 / rc_lookahead=60 / rc=crf / mbtree=0 / crf=17.0 / qcomp=0.60 / qpmin=0 / qpmax=69 / qpstep=4 / vbv_maxrate=62500 / vbv_bufsize=78125 / crf_max=0.0 / nal_hrd=none / ip_ratio=1.30 / pb_ratio=1.15 / aq=2:0.90
Язык : English
Default : Да
Forced : Нет
Аудио #1
Идентификатор : 2
Формат : AC-3
Формат/Информация : Audio Coding 3
Расширение режима : CM (complete main)
Параметр Endianness формата : Big
Идентификатор кодека : A_AC3
Продолжительность : 1 ч. 44 м.
Вид битрейта : Постоянный
Битрейт : 192 Кбит/сек
Каналы : 2 канала
Расположение каналов : Front: L R
Частота : 48,0 КГц
Битовая глубина : 16 бит
Метод сжатия : С потерями
Размер потока : 144 Мбайт (1%)
Заголовок : Дублированный, с IPTV TV1000 Premium HD
Язык : Russian
Default : Да
Forced : Нет
Аудио #2
Идентификатор : 3
Формат : DTS
Формат/Информация : Digital Theater Systems
Режим : 16
Параметр Endianness формата : Big
Идентификатор кодека : A_DTS
Продолжительность : 1 ч. 44 м.
Вид битрейта : Постоянный
Битрейт : 1509 Кбит/сек
Каналы : 6 каналов
Расположение каналов : Front: L C R, Side: L R, LFE
Частота : 48,0 КГц
Битовая глубина : 24 бит
Метод сжатия : С потерями
Размер потока : 1,11 Гбайт (7%)
Заголовок : Многоголосый закадровый, Карусель#1
Язык : Russian
Default : Нет
Forced : Нет
Аудио #3
Идентификатор : 4
Формат : DTS
Формат/Информация : Digital Theater Systems
Режим : 16
Параметр Endianness формата : Big
Идентификатор кодека : A_DTS
Продолжительность : 1 ч. 44 м.
Вид битрейта : Постоянный
Битрейт : 1510 Кбит/сек
Каналы : 6 каналов
Расположение каналов : Front: L C R, Side: L R, LFE
Частота : 48,0 КГц
Битовая глубина : 24 бит
Метод сжатия : С потерями
Размер потока : 1,11 Гбайт (7%)
Заголовок : Многоголосый закадровый, Карусель#2
Язык : Russian
Default : Нет
Forced : Нет
Аудио #4
Идентификатор : 5
Формат : AC-3
Формат/Информация : Audio Coding 3
Расширение режима : CM (complete main)
Параметр Endianness формата : Big
Идентификатор кодека : A_AC3
Продолжительность : 1 ч. 44 м.
Вид битрейта : Постоянный
Битрейт : 192 Кбит/сек
Каналы : 2 канала
Расположение каналов : Front: L R
Частота : 48,0 КГц
Битовая глубина : 16 бит
Метод сжатия : С потерями
Размер потока : 144 Мбайт (1%)
Заголовок : Многоголосый закадровый, Премьер-Видео
Язык : Russian
Default : Нет
Forced : Нет
Аудио #5
Идентификатор : 6
Формат : DTS
Формат/Информация : Digital Theater Systems
Режим : 16
Параметр Endianness формата : Big
Идентификатор кодека : A_DTS
Продолжительность : 1 ч. 44 м.
Вид битрейта : Постоянный
Битрейт : 1509 Кбит/сек
Каналы : 6 каналов
Расположение каналов : Front: L C R, Side: L R, LFE
Частота : 48,0 КГц
Битовая глубина : 24 бит
Метод сжатия : С потерями
Размер потока : 1,11 Гбайт (7%)
Заголовок : Одноголосый закадровый, Ю.Живов
Язык : Russian
Default : Нет
Forced : Нет
Аудио #6
Идентификатор : 7
Формат : DTS
Формат/Информация : Digital Theater Systems
Режим : 16
Параметр Endianness формата : Big
Идентификатор кодека : A_DTS
Продолжительность : 1 ч. 44 м.
Вид битрейта : Постоянный
Битрейт : 1509 Кбит/сек
Каналы : 6 каналов
Расположение каналов : Front: L C R, Side: L R, LFE
Частота : 48,0 КГц
Битовая глубина : 24 бит
Метод сжатия : С потерями
Размер потока : 1,11 Гбайт (7%)
Заголовок : Оригинал
Язык : English
Default : Нет
Forced : Нет
Аудио #7
Идентификатор : 8
Формат : AC-3
Формат/Информация : Audio Coding 3
Профиль формата : Dolby Digital
Расширение режима : CM (complete main)
Параметр Endianness формата : Big
Идентификатор кодека : A_AC3
Продолжительность : 1 ч. 44 м.
Вид битрейта : Постоянный
Битрейт : 192 Кбит/сек
Каналы : 2 канала
Расположение каналов : Front: L R
Частота : 48,0 КГц
Битовая глубина : 16 бит
Метод сжатия : С потерями
Размер потока : 144 Мбайт (1%)
Заголовок : Комментарии Рона Ховарда
Язык : English
Default : Нет
Forced : Нет
Текст #1
Идентификатор : 9
Формат : UTF-8
Идентификатор кодека : S_TEXT/UTF8
Идентификатор кодека/Информация : UTF-8 Plain Text
Заголовок : SDH
Язык : Russian
Default : Нет
Forced : Нет
Текст #2
Идентификатор : 10
Формат : UTF-8
Идентификатор кодека : S_TEXT/UTF8
Идентификатор кодека/Информация : UTF-8 Plain Text
Заголовок : subtitry.ru
Язык : Russian
Default : Нет
Forced : Нет
Текст #3
Идентификатор : 11
Формат : UTF-8
Идентификатор кодека : S_TEXT/UTF8
Идентификатор кодека/Информация : UTF-8 Plain Text
Язык : English
Default : Нет
Forced : Нет
Текст #4
Идентификатор : 12
Формат : UTF-8
Идентификатор кодека : S_TEXT/UTF8
Идентификатор кодека/Информация : UTF-8 Plain Text
Заголовок : Комментарии Рона Ховарда
Язык : English
Default : Нет
Forced : Нет
Меню
00:00:00.000 : :1. A Whoville Christmas
00:03:38.383 : :2. Meet the Grinch
00:10:26.792 : :3. Condy Lou's Savior
00:17:50.818 : :4. Christmas, Why Can't I Find You?
00:19:21.951 : :5. No Place Like Home
00:23:36.498 : :6. The Grinch's Story
00:33:29.089 : :7. Cindy Lou's Candidate
00:36:54.795 : :8. The Invitation
00:44:05.434 : :9. Second Thoughts
00:47:12.788 : :10. The Holiday Cheermeister
00:52:58.215 : :11. The Grinch's Revenge
00:59:39.117 : :12. A Wonderful, Awful Idea
01:02:39.672 : :13. You're a Mean One, Mr. Grinch
01:07:04.353 : :14. Grinchy Claus
01:14:36.637 : :15. To Take Every Present
01:18:12.354 : :16. Christmas Destroyed
01:22:01.041 : :17. A Change of Heart
01:27:18.065 : :18. To Save Cindy Lou
01:30:21.623 : :19. Merry Christmas, Mr. Grinch
01:37:52.448 : :20. End Titles

-
Log
raw [info]: 1920x1040p 1:1 @ 24000/1001 fps (cfr)
x264 [info]: using SAR=1/1
x264 [info]: using cpu capabilities: MMX2 SSE2Fast SSSE3 SSE4.2 AVX
x264 [info]: profile High, level 4.1
x264 [info]: frame I:1043 Avg QP:14.63 size:179239
x264 [info]: frame P:31085 Avg QP:15.85 size:105163
x264 [info]: frame B:118832 Avg QP:17.07 size: 73642
x264 [info]: consecutive B-frames: 2.0% 2.2% 3.7% 27.6% 8.5% 31.1% 7.1% 15.7% 2.1%
x264 [info]: mb I I16..4: 3.9% 86.2% 9.9%
x264 [info]: mb P I16..4: 2.3% 36.3% 2.3% P16..4: 21.2% 24.8% 6.1% 0.9% 0.0% skip: 6.1%
x264 [info]: mb B I16..4: 0.4% 7.1% 0.2% B16..8: 35.4% 22.9% 4.0% direct:20.0% skip:10.0% L0:41.7% L1:41.2% BI:17.2%
x264 [info]: 8x8 transform intra:90.0% inter:49.4%
x264 [info]: coded y,uvDC,uvAC intra: 94.1% 89.2% 65.6% inter: 65.0% 52.7% 7.5%
x264 [info]: i16 v,h,dc,p: 12% 7% 11% 71%
x264 [info]: i8 v,h,dc,ddl,ddr,vr,hd,vl,hu: 8% 7% 10% 10% 12% 12% 11% 13% 15%
x264 [info]: i4 v,h,dc,ddl,ddr,vr,hd,vl,hu: 14% 8% 11% 8% 12% 12% 11% 10% 13%
x264 [info]: i8c dc,h,v,p: 40% 22% 20% 18%
x264 [info]: Weighted P-Frames: Y:7.7% UV:4.6%
x264 [info]: ref P L0: 52.1% 8.8% 23.1% 14.6% 1.4% 0.0%
x264 [info]: ref B L0: 87.0% 10.6% 2.4%
x264 [info]: ref B L1: 91.2% 8.8%
x264 [info]: kb/s:15509.96
encoded 150960 frames, 1.12 fps, 15509.96 kb/s

-
Цитата:
* Сохранены оригинальные главы как на Blu-ray.
* Дорожки №2,3,5 получены наложением чистого голоса на центр декодированного DTS-HD.
* Переводы Карусели #1 и #2 отличаются как текстом, так и актерским составом.
* Дубляж [url=http://***/forum/viewtopic.php?t=4797418]отсюда[/url], спасибо PUSSEN.

-
Цитата:
Стою на раздаче до появления 5-6 сидов, после - не возвращаюсь.
Просьба к скачавшим как можно дольше не покидать раздачу!
Скачать

Скачать торрент!

Как скачивать? · Что такое торрент? · Рейтинг и ограничения

Сайт не распространяет и не хранит электронные версии произведений, а лишь предоставляет доступ к создаваемому пользователями каталогу ссылок на торрент-файлы, которые содержат только списки хеш-сумм

[Профиль] [ЛС]
Показать сообщения:    
Ответить на тему

Текущее время: Сегодня 01:14

Часовой пояс: GMT + 4



Вы не можете начинать темы
Вы не можете отвечать на сообщения
Вы не можете редактировать свои сообщения
Вы не можете удалять свои сообщения
Вы не можете голосовать в опросах
Вы не можете прикреплять файлы к сообщениям
Вы не можете скачивать файлы