Парад / Parade / Parêdo (Исао Юкисада / Isao Yukisada) [2009, Япония, драма, HDRip] VO (GREEN TEA) + original Jap + sub (rus, eng)

Ответить на тему
 
Автор Сообщение

user ®

Стаж: 13 лет

Сообщений: 15071

Пост Пост: #1 от 12-Апр-2015 18:09

[Цитировать]

Парад / Parade / Parêdo- -Страна: Япония
Жанр: драма
Год выпуска: 2009
Продолжительность: 01:58:19-Перевод: Одноголосый закадровый [GREEN TEA] (Валерий Феодосов)-Cубтитры: русские, английские [отдельно]
Оригинальная аудиодорожка: японский
Режиссер: Исао Юкисада / Isao Yukisada
В ролях: Тацуя Фудзивара, Карина, Сихори Кандзия, Кэнто Хаяси, Кейсуке Койдэ, Ацуси Фукадзава, Рэндзи Исибаси, Мидорико Кимура, Бокудзо Масана, Мисаки Момос
Описание: В одном из районов Токио в маленькой квартире формата 2LDK (2 спальни + гостиная/столовая/кухня «в одном флаконе») живут две девушки (Мирай и Котоми) и два молодых человека (Наоки и Рёсукэ). В «добровольной коммуналке» они умудряются уживаться и не конфликтовать друг с другом, при этом между девушками и молодыми людьми никакой любви и прочей романтики не наблюдается — у каждого из них есть своя «половинка» или кандидат в оные где-то в другом месте. А тут они просто живут. Их сосуществование можно назвать «подобием дружбы», как в чате или на компьютерном форуме, где каждый носит свою маску, и никто не знает истинной сущности тех, с кем постоянно общается. Неожиданное появление пятого человека в их обществе — Сатору — не разрушает их привычного существования, но позволяет им немного по-другому взглянуть и на самих себя, и на свои взаимоотношения. Оказывается, у каждого из них есть и слабости, и темные стороны их натуры.
Релиз от - &
Сэмпл: http://multi-up.com/1043328
Качество видео: HDRip
Формат видео: AVI
Видео: MPEG-4 Visual at 1991 Кбит/сек; 704 x 400 (1.760) at 23.976 fps
Аудио: AC-3 at 192 Кбит/сек; 2 канала, 48,0 КГц [VO]
Аудио: AC-3 at 448 Кбит/сек; 6 каналов, 48,0 КГц [Jap]
Автор -
MediaInfo
Общее
Полное имя : D:\Фильмы\Азиатские\Парад\Parade.2009.HDRip.XviD.2200MB. rip by [Assassin's Creed]\Parade.2009.HDRip.XviD.2200MB. rip by [Assassin's Creed].avi
Формат : AVI
Формат/Информация : Audio Video Interleave
Профиль формата : OpenDML
Размер файла : 2,19 Гбайт
Продолжительность : 1 ч. 58 м.
Общий поток : 2648 Кбит/сек
Программа кодирования : VirtualDubMod 1.5.10.3 | www.virtualdub-fr.org || (build 2550/release)
Библиотека кодирования : VirtualDubMod build 2550/release
Видео
Идентификатор : 0
Формат : MPEG-4 Visual
Профиль формата : Advanced Simple@L5
Параметр BVOP формата : 1
Параметр QPel формата : Нет
Параметр GMC формата : Без точки перехода
Параметр матрицы формата : Default (MPEG)
Идентификатор кодека : XVID
Идентификатор кодека/Подсказка : XviD
Продолжительность : 1 ч. 58 м.
Битрейт : 1991 Кбит/сек
Ширина : 704 пикселя
Высота : 400 пикселей
Соотношение сторон : 16:9
Частота кадров : 23,976 кадра/сек
Цветовое пространство : YUV
Субдискретизация насыщенности : 4:2:0
Битовая глубина : 8 бит
Тип развёртки : Прогрессивная
Метод сжатия : С потерями
Бит/(Пиксели*Кадры) : 0.295
Размер потока : 1,65 Гбайт (75%)
Библиотека кодирования : XviD 1.2.1 (UTC 2008-12-04)
Аудио #1
Идентификатор : 1
Формат : AC-3
Формат/Информация : Audio Coding 3
Расширение режима : CM (complete main)
Параметр Endianness формата : Big
Идентификатор кодека : 2000
Продолжительность : 1 ч. 58 м.
Вид битрейта : Постоянный
Битрейт : 192 Кбит/сек
Каналы : 2 канала
Расположение каналов : Front: L R
Частота : 48,0 КГц
Битовая глубина : 16 бит
Метод сжатия : С потерями
Размер потока : 162 Мбайт (7%)
Выравнивание : Разделение по промежуткам
Продолжительность промежутка : 42 мс. (1,00 видеокадр)
Время предзагрузки промежутка : 500 мс.
Аудио #2
Идентификатор : 2
Формат : AC-3
Формат/Информация : Audio Coding 3
Расширение режима : CM (complete main)
Параметр Endianness формата : Big
Идентификатор кодека : 2000
Продолжительность : 1 ч. 58 м.
Вид битрейта : Постоянный
Битрейт : 448 Кбит/сек
Каналы : 6 каналов
Channel(s)_Original : 5 каналов
Расположение каналов : Front: L C R, Side: L R
Частота : 48,0 КГц
Битовая глубина : 16 бит
Метод сжатия : С потерями
Размер потока : 379 Мбайт (17%)
Выравнивание : Разделение по промежуткам
Продолжительность промежутка : 42 мс. (1,00 видеокадр)
Время предзагрузки промежутка : 500 мс.
Общее
Полное имя : D:\Фильмы\Азиатские\Парад\Parade.2009.HDRip.XviD.2200MB. rip by [Assassin's Creed]\Parade.2009.HDRip.XviD.2200MB. rip by [Assassin's Creed].eng.srt
Формат : SubRip
Размер файла : 77,4 Кбайт
Текст
Формат : SubRip
Метод сжатия : Без потерь
Общее
Полное имя : D:\Фильмы\Азиатские\Парад\Parade.2009.HDRip.XviD.2200MB. rip by [Assassin's Creed]\Parade.2009.HDRip.XviD.2200MB. rip by [Assassin's Creed].rus.srt
Формат : SubRip
Размер файла : 101 Кбайт
Текст
Формат : SubRip
Метод сжатия : Без потерь
Скриншот c названием фильма Скриншоты
Скачать

Скачать торрент! Парад / Parade / Parêdo (Исао Юкисада / Isao Yukisada) [2009, Япония, драма, HDRip] VO (GREEN TEA) + original Jap + sub (rus, eng)

Как скачивать? · Что такое торрент? · Рейтинг и ограничения

Сайт не распространяет и не хранит электронные версии произведений, а лишь предоставляет доступ к создаваемому пользователями каталогу ссылок на торрент-файлы, которые содержат только списки хеш-сумм

[Профиль] [ЛС]
Показать сообщения:    
Ответить на тему

Текущее время: Сегодня 21:32

Часовой пояс: GMT + 4



Вы не можете начинать темы
Вы не можете отвечать на сообщения
Вы не можете редактировать свои сообщения
Вы не можете удалять свои сообщения
Вы не можете голосовать в опросах
Вы не можете прикреплять файлы к сообщениям
Вы не можете скачивать файлы