Моей жене 18 / Ngo liu poh lut gau ching / My Wife is 18 (Джеймс Юэнь / James Yuen) [2002, Гонконг, мелодрама, комедия, HDRip] VO

Ответить на тему
 
Автор Сообщение

user ®

Стаж: 13 лет

Сообщений: 15071

Пост Пост: #1 от 12-Апр-2015 18:09

[Цитировать]

Моей жене 18 / Ngo liu poh lut gau ching / My Wife is 18
Страна: Гонконг
Студия: Balagan Productions
Жанр: мелодрама, комедия
Год выпуска: 2002
Продолжительность: 1:43:45
Перевод: Одноголосый закадровый
Cубтитры: нет
Оригинальная аудиодорожка: нет
Режиссер: Джеймс Юэнь / James Yuen
В ролях: Экин Чэн, Чарлин Чой, Ричард Н, Сэнди Ламб, Рональд Чэн, Бернисе Лью, Стефани Че, Патрик Танг, Фанг Ли
Описание: Чеунгу уже тридцать лет, и всю свою жизнь он посвятил изучению психологии. Последние восемь лет, живя в Лондоне, он писал диссертацию на тему поведения современных женщин, но строгая комиссия бракует его работу, аргументируя это тем, что женщин Чеунг просто не понимает. Одновременно у Чеунга и другая проблема — его престарелая бабуля жуть как хочет, чтобы ее внучок женился, и так уж получилось, что той, кто согласился быстро за него выйти замуж, становится 18-летняя гонконгская студентка Йойо, приехавшая на уикенд в Лондон. «Молодые» договорились расторгнуть брак спустя год, но тут Чеунг понимает, что теперь у него есть отличный шанс исправить свою диссертацию, переписав ее на примере Йойо.
Релиз от -
Сэмпл: http://multi-up.com/1043350
Тип релиза: HDRip / [url=http://***/forum/viewtopic.php?t=4983995]BDRip 720p[/url]
Контейнер: AVI
Видео: XviD, 1804 kbps, 720 х 400 pixels, 24.000 fps
Аудио: AC3, 192 Kbps, 2 channels, Front: L R, 48.0 KHz, 16 bits

MediaInfo
General
Complete name : D:\kirovtorrent\My.Wife.Is.18.2002.HDRip.1.45Gb.avi
Format : AVI
Format/Info : Audio Video Interleave
File size : 1.45 GiB
Duration : 1h 43mn
Overall bit rate : 2 006 Kbps
Writing application : VirtualDubMod 1.5.10.3 | www.virtualdub-fr.org || (build 2550/release)
Writing library : VirtualDubMod build 2550/release
Video
ID : 0
Format : MPEG-4 Visual
Format profile : Advanced Simple@L5
Format settings, BVOP : 1
Format settings, QPel : No
Format settings, GMC : No warppoints
Format settings, Matrix : Default (MPEG)
Codec ID : XVID
Codec ID/Hint : XviD
Duration : 1h 43mn
Bit rate : 1 804 Kbps
Width : 720 pixels
Height : 400 pixels
Display aspect ratio : 16:9
Frame rate : 24.000 fps
Color space : YUV
Chroma subsampling : 4:2:0
Bit depth : 8 bits
Scan type : Progressive
Compression mode : Lossy
Bits/(Pixel*Frame) : 0.261
Stream size : 1.31 GiB (90%)
Writing library : XviD 73
Audio
ID : 1
Format : AC-3
Format/Info : Audio Coding 3
Mode extension : CM (complete main)
Format settings, Endianness : Big
Codec ID : 2000
Duration : 1h 43mn
Bit rate mode : Constant
Bit rate : 192 Kbps
Channel(s) : 2 channels
Channel positions : Front: L R
Sampling rate : 48.0 KHz
Bit depth : 16 bits
Compression mode : Lossy
Stream size : 142 MiB (10%)
Alignment : Split accross interleaves
Interleave, duration : 42 ms (1.00 video frame)
Interleave, preload duration : 500 ms
Скриншоты
Скачать

Скачать торрент! Моей жене 18 / Ngo liu poh lut gau ching / My Wife is 18 (Джеймс Юэнь / James Yuen) [2002, Гонконг, мелодрама, комедия, HDRip] VO

Как скачивать? · Что такое торрент? · Рейтинг и ограничения

Сайт не распространяет и не хранит электронные версии произведений, а лишь предоставляет доступ к создаваемому пользователями каталогу ссылок на торрент-файлы, которые содержат только списки хеш-сумм

[Профиль] [ЛС]
Показать сообщения:    
Ответить на тему

Текущее время: Сегодня 21:32

Часовой пояс: GMT + 4



Вы не можете начинать темы
Вы не можете отвечать на сообщения
Вы не можете редактировать свои сообщения
Вы не можете удалять свои сообщения
Вы не можете голосовать в опросах
Вы не можете прикреплять файлы к сообщениям
Вы не можете скачивать файлы