Шёпот сердца / Oohalu Gusagusalade (Шринивас Авасарала / Srinivas Avasarala) [2014, Индия, Романтическая комедия, DVDRip] + Sub Rus

Ответить на тему
 
Автор Сообщение

user ®

Стаж: 12 лет

Сообщений: 15092

Пост Пост: #1 от 11-Апр-2015 20:30

[Цитировать]

Шёпот сердца / Oohalu Gusagusalade Страна: Индия
Жанр: Романтическая комедия
Год выпуска: 2014
Продолжительность: 02:11:05
Перевод: Субтитры
Cубтитры: русские
Оригинальная аудиодорожка: Телугу
Режиссер: Шринивас Авасарала / Srinivas Avasarala
В ролях: Нага Шорья, Раши Кханна, Шринивас Авасарала
Описание: Венки, стремясь к своей мечте, стать ведущим теленовостей, соглашается помочь своему боссу Удаю добиться Прабхи, на которой тот собирается жениться. Проблемы Венки начинаются, когда он узнает, что Прабха его бывшая девушка, которую он любит и по сей день...
Релиз-группа: Bee Movie
Перевод: Марк1979, Ратюся
Редакция, тайминг: Ратюся
Перевод песен: diamante

Качество видео: DVDRip
Формат видео: AVI
Видео: Xvid, 720x384, 23.976 fps, 1395 kbps
Аудио: AC3, 44.1 kHz, 2 channels, 192 kbps
Формат субтитров: hardsub (неотключаемые)
MediaInfo
C:\Users\алла\Videos\бимуви\Shepot.serdza.2014.DVDRip.Bee.Movie.avi
General
Complete name : C:\Users\алла\Videos\бимуви\Shepot.serdza.2014.DVDRip.Bee.Movie.avi
Format : AVI
Format/Info : Audio Video Interleave
File size : 1.46 GiB
Duration : 2h 11mn
Overall bit rate : 1 597 Kbps
Writing application : VirtualDubMod 1.5.10.3 | www.virtualdub-fr.org || (build 2550/release)
Writing library : VirtualDubMod build 2550/release
Video #0
ID : 0
Format : MPEG-4 Visual
Format profile : Advanced Simple@L5
Format settings, BVOP : 1
Format settings, QPel : No
Format settings, GMC : No warppoints
Format settings, Matrix : Default (MPEG)
Codec ID : DX50
Codec ID/Hint : DivX 5
Duration : 2h 11mn
Bit rate : 1 395 Kbps
Width : 720 pixels
Height : 384 pixels
Display aspect ratio : 1.875
Frame rate : 23.976 fps
Color space : YUV
Chroma subsampling : 4:2:0
Bit depth : 8 bits
Scan type : Progressive
Compression mode : Lossy
Bits/(Pixel*Frame) : 0.211
Stream size : 1.28 GiB (87%)
Writing library : XviD 1.2.1 (UTC 2008-12-04)
Audio #1
ID : 1
Format : AC-3
Format/Info : Audio Coding 3
Mode extension : CM (complete main)
Codec ID : 2000
Duration : 2h 11mn
Bit rate mode : Constant
Bit rate : 192 Kbps
Channel(s) : 2 channels
Channel positions : Front: L R
Sampling rate : 44.1 KHz
Bit depth : 16 bits
Compression mode : Lossy
Stream size : 180 MiB (12%)
Alignment : Split accross interleaves
Interleave, duration : 42 ms (1.00 video frame)
Interleave, preload duration : 500 ms
Скриншот c названием фильма Скриншоты
Скачать

Скачать торрент! Шёпот сердца / Oohalu Gusagusalade (Шринивас Авасарала / Srinivas Avasarala) [2014, Индия, Романтическая комедия, DVDRip] + Sub Rus

Как скачивать? · Что такое торрент? · Рейтинг и ограничения

Сайт не распространяет и не хранит электронные версии произведений, а лишь предоставляет доступ к создаваемому пользователями каталогу ссылок на торрент-файлы, которые содержат только списки хеш-сумм

[Профиль] [ЛС]
Показать сообщения:    
Ответить на тему

Текущее время: Сегодня 15:47

Часовой пояс: GMT + 4



Вы не можете начинать темы
Вы не можете отвечать на сообщения
Вы не можете редактировать свои сообщения
Вы не можете удалять свои сообщения
Вы не можете голосовать в опросах
Вы не можете прикреплять файлы к сообщениям
Вы не можете скачивать файлы