Люди Икс: Последняя битва / X-Men: The Last Stand (Бретт Рэтнер / Brett Ratner) [2006, Канада, США, Великобритания, фантастика, боевик, BDRip 1080p] Dub (CEE) + DVO (Гланц и Артемова) + 2x AVO (Гаврилов, Рябов) + Original Eng + Sub Rus, Ukr, Eng

Ответить на тему
 
Автор Сообщение

user ®

Стаж: 7 лет 7 месяцев

Сообщений: 20008

Пост Пост: #1 от 11-Апр-2015 20:30

[Цитировать]

Люди Икс: Последняя битва / X-Men: The Last Stand- Год выпуска: 2006
Страна: Канада, США, Великобритания
Жанр: фантастика, боевик, триллер
Продолжительность: 01:44:05
Перевод: Профессиональный (полное дублирование)
+ Профессиональный (двухголосый, закадровый) П.Гланц и Ю.Артемова
+ Авторский одноголосый С.Рябов
+ Авторский одноголосый А.Гаврилов
Оригинальная аудиодорожка: English
Субтитры: Russian, English, Ukrainian-Режиссер: Бретт Рэтнер / Brett Ratner
В ролях: Хью Джекман, Холли Берри, Иэн МакКеллен, Фамке Янссен, Келси Грэммер, Шон Эшмор, Аарон Стэнфорд, Патрик Стюарт, Бен Фостер, Эллен Пейдж
О фильме: Людям Икс, во главе с профессором Чарльзом Ксавьером, приходится вступить в битву с самой эволюцией в лице их воскресшего товарища по команде... Джин Грэй, возрожденная в облике Темного Феникса, представляет опасность не только для самой себя, но и для мутантов и для всей человеческой расы.
А когда наконец найдено возможное лекарство - то, что может предотвратить генетические мутации - наступает время решающей битвы между Людьми Икс, Братством Магнето и человечеством.-SbR!
Тип релиза: BDRip 1080p
Источник: X-Men The Last Stand 2006 1080p Blu-Ray CEE AVC DTS-HD-EiMi
Контейнер: MKV
Видео: 1920x800 at 23.976 fps, x264@L4.1, crf, ~18772 kbps avg
Аудио #01: Russian: 48 kHz, DTS, 3/2 (L,C,R,l,r) + LFE ch, ~768 kbps avg |Дубляж, Blu-ray CEE|
Аудио #02: Russian: 48 kHz, DTS-ES, 3/3 (L,C,R,l,c,r) + LFE ch, ~1509 kbps avg |Двухголосый закадровый, П. Гланц и Ю. Артёмова|
Аудио #03: Russian: 48 kHz, DTS-ES, 3/3 (L,C,R,l,c,r) + LFE ch, ~768 kbps avg |Одноголосый закадровый, С. Рябов|
Аудио #04: Russian: 48 kHz, AC3, 3/2 (L,C,R,l,r) ch, ~448 kbps avg |Одноголосый закадровый, А. Гаврилов|
Аудио #05: English: 48 kHz, DTS, 3/2 (L,C,R,l,r) + LFE ch, ~1509 kbps
Семпл-Source vs Encode
-
mInfo
Формат : Matroska
Версия формата : Version 4 / Version 2
Размер файла : 17,3 Гбайт
Продолжительность : 1 ч. 44 м.
Общий поток : 23,8 Мбит/сек
Название фильма : X-Men: The Last Stand (2006) - Release for HDCLUB by SbR
Дата кодирования : UTC 2015-04-11 10:25:21
Программа кодирования : mkvmerge v7.0.0 ('Where We Going') 32bit built on Jun 9 2014 15:08:34
Библиотека кодирования : libebml v1.3.0 + libmatroska v1.4.1
Attachements : cover.jpg / xlog.txt
_STATISTICS_WRITING_APP : mkvmerge v7.0.0 ('Where We Going') 32bit built on Jun 9 2014 15:08:34
_STATISTICS_WRITING_DATE_UTC : 2015-04-11 10:25:21
_STATISTICS_TAGS : BPS DURATION NUMBER_OF_FRAMES NUMBER_OF_BYTES
DURATION : 01:44:04.192000000
NUMBER_OF_FRAMES : 195131
NUMBER_OF_BYTES : 349674752
Видео
Идентификатор : 1
Формат : AVC
Формат/Информация : Advanced Video Codec
Профиль формата : High@L4.1
Параметр CABAC формата : Да
Параметр ReFrames формата : 5 кадров
Идентификатор кодека : V_MPEG4/ISO/AVC
Продолжительность : 1 ч. 44 м.
Битрейт : 18,3 Мбит/сек
Ширина : 1920 пикселей
Высота : 800 пикселей
Соотношение сторон : 2,40:1
Режим частоты кадров : Постоянный
Частота кадров : 23,976 кадра/сек
Цветовое пространство : YUV
Субдискретизация насыщенности : 4:2:0
Битовая глубина : 8 бит
Тип развёртки : Прогрессивная
Бит/(Пиксели*Кадры) : 0.497
Размер потока : 13,3 Гбайт (77%)
Библиотека кодирования : x264 core 140 r2377+40 929f149 tMod [8-bit@4:2:0 X86_64]
Настройки программы : cabac=1 / ref=5 / deblock=1:-2:-2 / analyse=0x3:0x113 / me=umh / subme=11 / psy=1 / fade_compensate=0.00 / psy_rd=1.00:0.00 / mixed_ref=1 / me_range=48 / chroma_me=1 / trellis=2 / 8x8dct=1 / cqm=0 / deadzone=21,11 / fast_pskip=1 / chroma_qp_offset=-2 / threads=12 / lookahead_threads=3 / sliced_threads=0 / nr=0 / decimate=1 / interlaced=0 / bluray_compat=0 / constrained_intra=0 / fgo=0 / bframes=10 / b_pyramid=2 / b_adapt=2 / b_bias=0 / direct=3 / weightb=1 / open_gop=0 / weightp=2 / keyint=250 / keyint_min=23 / scenecut=40 / intra_refresh=0 / rc_lookahead=60 / rc=crf / mbtree=0 / crf=19.0000 / qcomp=0.60 / qpmin=0:0:0 / qpmax=69:69:69 / qpstep=4 / vbv_maxrate=62500 / vbv_bufsize=78125 / crf_max=0.0 / nal_hrd=none / filler=0 / ip_ratio=1.40 / pb_ratio=1.30 / aq=4:0.75 / aq-sensitivity=11.00 / aq-factor=1.00:1.00:1.00 / aq2=1:0.60 / aq2-sensitivity=9.00 / aq2-factor=1.00:1.00:1.00 / aq3=1:[0.60:0.60]:[0.60:0.60]:[0.60:0.60]:[0.60:0.60] / aq3-sensitivity=10.00 / aq3-factor=[1.00:1.00]:[1.00:1.00]:[1.00:1.00] / aq3-boundary=192:64:24
Язык : English
Default : Да
Forced : Нет
Основные цвета : BT.709
Характеристики трансфера : BT.709
Коэффициенты матрицы : BT.709
colour_range : Limited
Аудио #1
Идентификатор : 2
Формат : DTS
Формат/Информация : Digital Theater Systems
Режим : 16
Параметр Endianness формата : Big
Идентификатор кодека : A_DTS
Продолжительность : 1 ч. 44 м.
Вид битрейта : Постоянный
Битрейт : 768 Кбит/сек
Каналы : 6 каналов
Расположение каналов : Front: L C R, Side: L R, LFE
Частота : 48,0 КГц
Битовая глубина : 24 бит
Метод сжатия : С потерями
Размер потока : 572 Мбайт (3%)
Заголовок : Dub
Язык : Russian
Default : Да
Forced : Нет
Аудио #2
Идентификатор : 3
Формат : DTS
Формат/Информация : Digital Theater Systems
Профиль формата : ES
Режим : 16
Параметр Endianness формата : Big
Идентификатор кодека : A_DTS
Продолжительность : 1 ч. 44 м.
Вид битрейта : Постоянный
Битрейт : 1510 Кбит/сек
Каналы : 7 каналов / 6 каналов
Расположение каналов : Front: L C R, Side: L R, Back: C, LFE / Front: L C R, Side: L R, LFE
Частота : 48,0 КГц
Битовая глубина : 24 бит
Метод сжатия : С потерями
Размер потока : 1,10 Гбайт (6%)
Заголовок : DVO, Гланц и Артемова
Язык : Russian
Default : Нет
Forced : Нет
Аудио #3
Идентификатор : 4
Формат : DTS
Формат/Информация : Digital Theater Systems
Профиль формата : ES
Режим : 16
Параметр Endianness формата : Big
Идентификатор кодека : A_DTS
Продолжительность : 1 ч. 44 м.
Вид битрейта : Постоянный
Битрейт : 755 Кбит/сек
Каналы : 7 каналов / 6 каналов
Расположение каналов : Front: L C R, Side: L R, Back: C, LFE / Front: L C R, Side: L R, LFE
Частота : 48,0 КГц
Битовая глубина : 24 бит
Метод сжатия : С потерями
Размер потока : 562 Мбайт (3%)
Заголовок : VO, Рябов
Язык : Russian
Default : Нет
Forced : Нет
Аудио #4
Идентификатор : 5
Формат : AC-3
Формат/Информация : Audio Coding 3
Расширение режима : CM (complete main)
Параметр Endianness формата : Big
Идентификатор кодека : A_AC3
Продолжительность : 1 ч. 44 м.
Вид битрейта : Постоянный
Битрейт : 448 Кбит/сек
Каналы : 6 каналов
Расположение каналов : Front: L C R, Side: L R, LFE
Частота : 48,0 КГц
Битовая глубина : 16 бит
Метод сжатия : С потерями
Размер потока : 334 Мбайт (2%)
Заголовок : VO, Гаврилов
Язык : Russian
Default : Нет
Forced : Нет
Аудио #5
Идентификатор : 6
Формат : DTS
Формат/Информация : Digital Theater Systems
Профиль формата : ES
Режим : 16
Параметр Endianness формата : Big
Идентификатор кодека : A_DTS
Продолжительность : 1 ч. 44 м.
Вид битрейта : Постоянный
Битрейт : 1509 Кбит/сек
Каналы : 7 каналов / 6 каналов
Расположение каналов : Front: L C R, Side: L R, Back: C, LFE / Front: L C R, Side: L R, LFE
Частота : 48,0 КГц
Битовая глубина : 24 бит
Метод сжатия : С потерями
Размер потока : 1,10 Гбайт (6%)
Язык : English
Default : Нет
Forced : Нет
Текст #1
Идентификатор : 7
Формат : UTF-8
Идентификатор кодека : S_TEXT/UTF8
Идентификатор кодека/Информация : UTF-8 Plain Text
Заголовок : captions
Язык : Russian
Default : Да
Forced : Нет
Текст #2
Идентификатор : 8
Формат : UTF-8
Идентификатор кодека : S_TEXT/UTF8
Идентификатор кодека/Информация : UTF-8 Plain Text
Язык : Russian
Default : Нет
Forced : Нет
Текст #3
Идентификатор : 9
Формат : UTF-8
Идентификатор кодека : S_TEXT/UTF8
Идентификатор кодека/Информация : UTF-8 Plain Text
Язык : Ukrainian
Default : Нет
Forced : Нет
Текст #4
Идентификатор : 10
Формат : UTF-8
Идентификатор кодека : S_TEXT/UTF8
Идентификатор кодека/Информация : UTF-8 Plain Text
Язык : English
Default : Нет
Forced : Нет
Меню
00:00:00.000 : en:Years Ago/Main Titles
00:05:17.191 : en:The Simulation
00:09:21.310 : en:Interrogating Mystique
00:12:19.405 : en:A Cure for Mystique
00:17:53.071 : en:The Rally
00:23:09.137 : en:Transformation
00:30:57.897 : en:Jean's Return
00:33:57.493 : en:Rescue and Abandonment
00:38:02.363 : en:Jean's True Power
00:43:48.167 : en:Out of Control
00:50:36.742 : en:Remembering the Professor
00:55:37.083 : en:Magneto's Army
00:58:02.854 : en:Saving Xavier's School
01:01:13.878 : en:Public Threat
01:03:56.749 : en:At Magneto's Camp
01:08:16.801 : en:Raid
01:10:40.569 : en:Final Stand
01:13:21.313 : en:Assault on Alcatraz
01:19:11.538 : en:Holding the Line
01:22:10.091 : en:Protecting the Cure
01:25:03.848 : en:One of Them
01:29:41.751 : en:Because of Love
01:34:25.701 : en:As They Should Be
01:36:02.590 : en:Powerless/End Titles

-
Log
x264 [info]: frame I:1060 Avg QP:17.43 size:262366
x264 [info]: frame P:32526 Avg QP:18.47 size:134968
x264 [info]: frame B:116150 Avg QP:20.73 size: 85984
x264 [info]: consecutive B-frames: 2.6% 3.0% 11.0% 10.7% 10.8% 49.9% 7.2% 1.3% 1.6% 1.2% 0.8%
x264 [info]: kb/s:18772.78

-
Цитата:
* За синхронизацию звуковой дорожки #4 спасибо xAlhimx.

-
-Цитата:
Стою на раздаче до появления 5-6 сидов, после - не возвращаюсь.
Просьба к скачавшим как можно дольше не покидать раздачу!
Скачать

Скачать торрент!

Как скачивать? · Что такое торрент? · Рейтинг и ограничения

Сайт не распространяет и не хранит электронные версии произведений, а лишь предоставляет доступ к создаваемому пользователями каталогу ссылок на торрент-файлы, которые содержат только списки хеш-сумм

[Профиль] [ЛС]
Показать сообщения:    
Ответить на тему

Текущее время: Сегодня 16:43

Часовой пояс: GMT + 4



Вы не можете начинать темы
Вы не можете отвечать на сообщения
Вы не можете редактировать свои сообщения
Вы не можете удалять свои сообщения
Вы не можете голосовать в опросах
Вы не можете прикреплять файлы к сообщениям
Вы не можете скачивать файлы