Берцы (Екатерина Шагалова) [2014, драма, HDTVRip]

Ответить на тему
 
Автор Сообщение

user ®

Стаж: 7 лет 7 месяцев

Сообщений: 20008

Пост Пост: #1 от 11-Апр-2015 20:30

[Цитировать]

Берцы Жанр: драма
Год выпуска: 2014
Продолжительность: 01:40:07
Режиссёр: Екатерина Шагалова
В ролях: Тимофей Каратаев, Ксения Лаврова-Глинка ,Татьяна Лютаева, Алексей Барабаш, Дарья Екамасова, Мария Антонова, Георгий Губин
Описание: Сергей — молодой независимый тележурналист, уволен с работы за слишком смелый репортаж. Ирина — ведущая кабельного ТВ, живет в гражданском браке, не верит, что ее жизнь может измениться. Берцы — высокие армейские ботинки, которые Сергею подарил друг, сказав, что они «приводят куда надо». Сергея они приводят к Ирине. Жизнь обоих стремительно меняется к лучшему. Но вскоре берцы оказываются выброшенными на свалку.
Сэмпл: http://rusfolder.com/43432220

Качество видео: HDTVRip [url=http://***/forum/viewtopic.php?t=4982839][исходник 1080i][/url]
Формат видео: AVI
Видео: 720x400 (1.80:1), 25 fps, XviD, ~1890 kbps
Аудио: 48 kHz, AC3 Dolby Digital, 2/0 (L,R) ch, ~192 kbps
MediaInfo
Общее
Полное имя : C:\Documents and Settings\User\Рабочий стол\Берцы.avi
Формат : AVI
Формат/Информация : Audio Video Interleave
Размер файла : 1,46 Гбайт
Продолжительность : 1 ч. 40 м.
Общий поток : 2092 Кбит/сек
Программа кодирования : VirtualDubMod 1.5.10.2 (build 2540/release)
Библиотека кодирования : VirtualDubMod build 2540/release
Видео
Идентификатор : 0
Формат : MPEG-4 Visual
Профиль формата : Advanced Simple@L5
Параметр BVOP формата : 1
Параметр QPel формата : Нет
Параметр GMC формата : Без точки перехода
Параметр матрицы формата : Default (MPEG)
Идентификатор кодека : XVID
Идентификатор кодека/Подсказка : XviD
Продолжительность : 1 ч. 40 м.
Битрейт : 1890 Кбит/сек
Ширина : 720 пикселей
Высота : 400 пикселей
Соотношение сторон : 16:9
Частота кадров : 25,000 кадров/сек
Цветовое пространство : YUV
Субдискретизация насыщенности : 4:2:0
Битовая глубина : 8 бит
Тип развёртки : Прогрессивная
Метод сжатия : С потерями
Бит/(Пиксели*Кадры) : 0.262
Размер потока : 1,32 Гбайт (90%)
Библиотека кодирования : XviD 1.2.1 (UTC 2008-12-04)
Аудио
Идентификатор : 1
Формат : AC-3
Формат/Информация : Audio Coding 3
Расширение режима : CM (complete main)
Параметр Endianness формата : Big
Идентификатор кодека : 2000
Продолжительность : 1 ч. 40 м.
Вид битрейта : Постоянный
Битрейт : 192 Кбит/сек
Каналы : 2 канала
Расположение каналов : Front: L R
Частота : 48,0 КГц
Битовая глубина : 16 бит
Метод сжатия : С потерями
Размер потока : 138 Мбайт (9%)
Выравнивание : Соединение по промежуткам
Продолжительность промежутка : 40 мс. (1,00 видеокадр)
Время предзагрузки промежутка : 512 мс.
Скриншот c названием фильма Скриншоты
Скачать

Скачать торрент!

Как скачивать? · Что такое торрент? · Рейтинг и ограничения

Сайт не распространяет и не хранит электронные версии произведений, а лишь предоставляет доступ к создаваемому пользователями каталогу ссылок на торрент-файлы, которые содержат только списки хеш-сумм

[Профиль] [ЛС]
Показать сообщения:    
Ответить на тему

Текущее время: Сегодня 08:25

Часовой пояс: GMT + 4



Вы не можете начинать темы
Вы не можете отвечать на сообщения
Вы не можете редактировать свои сообщения
Вы не можете удалять свои сообщения
Вы не можете голосовать в опросах
Вы не можете прикреплять файлы к сообщениям
Вы не можете скачивать файлы