Похищение мистера Хайнекена / Kidnapping Mr. Heineken (Даниэль Альфредсон / Daniel Alfredson) [2015, Нидерланды / Великобритания / Бельгия, Драма / Криминал / Триллер, DVDScreener] AVO (А. Глинский) + Original Eng

Ответить на тему
 
Автор Сообщение

user ®

Стаж: 7 лет 7 месяцев

Сообщений: 20008

Пост Пост: #1 от 11-Апр-2015 20:30

[Цитировать]

Похищение мистера Хайнекена / Kidnapping Mr. Heineken
Страна: Нидерланды / Великобритания / Бельгия
Жанр: Драма / Криминал / Триллер
Год выпуска: 2015
Продолжительность: 01:34:44
Перевод: Одноголосый закадровый (автор: А. Глинский)
Cубтитры: нет
Оригинальная аудиодорожка: английский
Режиссер: Даниэль Альфредсон / Daniel Alfredson
В ролях: Джим Стерджесс, Сэм Уортингтон, Энтони Хопкинс, Райэн Куэйтен, Марк ван Юэн
Описание: Картина рассказывает о нашумевшем в 80-е годы похищении миллиардера Альфреда Хайнекена. Группа незадачливых дельцов оказывается не удел в период финансового кризиса и решает поправить свои дела радикальным способом. (Рекламы пива в фильме почти нет).
Сэмпл: http://sendfile.su/1106493
Качество видео: DVDScreener
Формат видео: AVI
Видео: XviD MPEG-4, 720x304, 2.35:1, 23.976 fps, 1 738 Kbps
Аудио: MP3 Stereo, 44.1kHz, 112 kbps, 2 channels, перевод
Аудио 2: AC3, 48 kHz, 384 kbps, Front: L R, Original
MediaInfo
Complete name : F:\Mr. Heineden 1.47\Kidnapping Mr. Heineken.avi
Format : AVI
Format/Info : Audio Video Interleave
File size : 1.49 GiB
Duration : 1h 34mn
Overall bit rate : 2 248 Kbps
Writing application : VirtualDubMod 1.5.10.2 (build 2542/release)
Writing library : VirtualDubMod build 2542/release
Video
ID : 0
Format : MPEG-4 Visual
Format profile : Advanced Simple@L5
Format settings, BVOP : 2
Format settings, QPel : No
Format settings, GMC : No warppoints
Format settings, Matrix : Default (H.263)
Muxing mode : Packed bitstream
Codec ID : XVID
Codec ID/Hint : XviD
Duration : 1h 34mn
Bit rate : 1 738 Kbps
Width : 720 pixels
Height : 304 pixels
Display aspect ratio : 2.35:1
Frame rate : 23.976 fps
Color space : YUV
Chroma subsampling : 4:2:0
Bit depth : 8 bits
Scan type : Progressive
Compression mode : Lossy
Bits/(Pixel*Frame) : 0.331
Stream size : 1.15 GiB (77%)
Writing library : XviD 64
Audio #1
ID : 1
Format : MPEG Audio
Format version : Version 1
Format profile : Layer 3
Mode : Joint stereo
Mode extension : MS Stereo
Codec ID : 55
Codec ID/Hint : MP3
Duration : 1h 34mn
Bit rate mode : Constant
Bit rate : 112 Kbps
Channel(s) : 2 channels
Sampling rate : 44.1 KHz
Compression mode : Lossy
Stream size : 75.9 MiB (5%)
Alignment : Split accross interleaves
Interleave, duration : 42 ms (1.00 video frame)
Interleave, preload duration : 500 ms
Writing library : LAME3.98.4
Audio #2
ID : 2
Format : AC-3
Format/Info : Audio Coding 3
Mode extension : CM (complete main)
Format settings, Endianness : Big
Codec ID : 2000
Duration : 1h 34mn
Bit rate mode : Constant
Bit rate : 384 Kbps
Channel(s) : 2 channels
Channel positions : Front: L R
Sampling rate : 48.0 KHz
Bit depth : 16 bits
Compression mode : Lossy
Stream size : 260 MiB (17%)
Alignment : Split accross interleaves
Interleave, duration : 42 ms (1.00 video frame)
Interleave, preload duration : 500 ms
Скриншот c названием фильма Скриншоты
Скачать

Скачать торрент!

Как скачивать? · Что такое торрент? · Рейтинг и ограничения

Сайт не распространяет и не хранит электронные версии произведений, а лишь предоставляет доступ к создаваемому пользователями каталогу ссылок на торрент-файлы, которые содержат только списки хеш-сумм

[Профиль] [ЛС]
Показать сообщения:    
Ответить на тему

Текущее время: Сегодня 21:52

Часовой пояс: GMT + 4



Вы не можете начинать темы
Вы не можете отвечать на сообщения
Вы не можете редактировать свои сообщения
Вы не можете удалять свои сообщения
Вы не можете голосовать в опросах
Вы не можете прикреплять файлы к сообщениям
Вы не можете скачивать файлы