Сумасшедшие гонки / Херби-победитель / Herbie: Fully Loaded (Анджела Робинсон / Angela Robinson) [2005, США, комедия, приключения, спорт, фэнтези, WEB-DL 720p] Dub (Невафильм) + 2x MVO (Tycoon-Studio, СТС) + 6 x Sub (Rus, Ukr, Eng) + Original Eng

Ответить на тему
 
Автор Сообщение

user ®

Стаж: 7 лет 7 месяцев

Сообщений: 20008

Пост Пост: #1 от 11-Апр-2015 17:24

[Цитировать]

Сумасшедшие гонки / Херби-победитель / Herbie: Fully Loaded
Страна: США
Студия: Robert Simonds Productions, Walt Disney Pictures
Жанр: Комедия, приключения, семейный, спорт, фэнтези
Год выпуска: 2005
Продолжительность: 01:41:05
Перевод: Профессиональный (дублированный) Невафильм | iTunes
Перевод 2: Профессиональный (многоголосый закадровый) Tycoon-Studio
Перевод 3: Профессиональный (многоголосый закадровый) СТС
Cубтитры: Русские, украинские (полные, форсированные), английские (полные, SDH)
Формат субтитров: softsub (SRT)
Оригинальная аудио-дорожка: Английская
Режиссёр: Анджела Робинсон / Angela Robinson
В ролях: Линдси Лохан, Майкл Китон, Мэтт Диллон, Брекин Мейер, Джастин Лонг, Шерил Хайнс, Джимми Симпсон, Джилл Ричи, Томас Леннон, Джереми Робертс
Описание: Херби - классический Фольксваген «Жук». Он немного странный, в его механическом теле живет нежная и ранимая душа романтика и мечта стать победителем самых престижных кольцевых гонок мира. Наконец его мечта приближается к реальности — знаменитая машина попадает на гонки NASCAR. Новая владелица Херби, обладающая вздорным нравом и желанием побеждать, мечтает о том же - теперь они готовы покорить эту головокружительную высоту вместе!

Тип релиза: WEB-DL 720p [Исходник: WEB-DL (720p) от HDClub | iTunes]
Контейнер: MKV
Видео: MPEG-4 AVC, 4147 Кбит/с, 1280x688 (1.860), 23.976 кадр/с
Аудио #1: Русский, Dolby AC3, 48000 Гц, 384 Кбит/с, 6 каналов (5.1) - DUB [Невафильм] | iTunes
Аудио #2: Русский, Dolby AC3, 48000 Гц, 448 Кбит/с, 6 каналов (5.1) - MVO [Tycoon-Studio]
Аудио #3: Русский, Dolby AC3, 48000 Гц, 224 Кбит/с, 2 канала (Стерео) - MVO [СТС]
Аудио #4: Английский, Dolby AC3, 48000 Гц, 448 Кбит/с, 6 каналов (5.1) - Оригинал
Навигация по главам: Есть (с названием глав)

Релиз от: ivandubskoj
Знаете ли вы, что...
• Марка автомобиля «Херби» - «Volkswagen L87».
• Фамилия Пейтон в фильме - дань уважения Пейтону Риду, режиссёру предыдущего телефильма о Херби - «Фольксваген-жук» (1997).
• Рабочие названия фильма - «Херби» (Herbie) и «Херби - любимый жучок» (Herbie the Love Bug).
• Съёмки картины проходили с 9 августа по 18 ноября 2004 года.
• Это один из самых последних фильмов, выпущенных в США на видеокассетах, перед тем как киностудии окончательно отказались от этого формата.
MediaInfo
General
Unique ID : 233448092468722214279654514929028793281 (0xAFA07798C07D7CE38A34ABD6EEAF83C1)
Complete name : Herbie.Fully.Loaded.2005.WEB-DL.720p.mkv
Format : Matroska
File size : 4.07 GiB
Duration : 1h 41mn
Overall bit rate : 5 766 Kbps
Movie name : Сумасшедшие гонки / Хёрби-победитель / Herbie: Fully Loaded (2005) WEB-DL (720p)
Encoded date : UTC 2015-04-08 09:27:31
Writing application : mkvmerge v6.1.0 ('Old Devil') built on Mar 4 2013 09:10:42
Writing library : libebml v1.3.0 + libmatroska v1.4.0
Video
ID : 1
Format : AVC
Format/Info : Advanced Video Codec
Format profile : High@L3.1
Format settings, CABAC : No
Format settings, ReFrames : 2 frames
Codec ID : V_MPEG4/ISO/AVC
Duration : 1h 41mn
Bit rate : 4 147 Kbps
Width : 1 280 pixels
Height : 688 pixels
Display aspect ratio : 1.860
Frame rate : 23.976 fps
Color space : YUV
Chroma subsampling : 4:2:0
Bit depth : 8 bits
Scan type : Progressive
Bits/(Pixel*Frame) : 0.196
Stream size : 2.93 GiB (72%)
Title : Herbie: Fully Loaded (2005)
Language : English
Color primaries : BT.709-5, BT.1361, IEC 61966-2-4, SMPTE RP177
Transfer characteristics : BT.709-5, BT.1361
Matrix coefficients : BT.709-5, BT.1361, IEC 61966-2-4 709, SMPTE RP177
Audio #1
ID : 2
Format : AC-3
Format/Info : Audio Coding 3
Mode extension : CM (complete main)
Codec ID : A_AC3
Duration : 1h 41mn
Bit rate mode : Constant
Bit rate : 384 Kbps
Channel(s) : 6 channels
Channel positions : Front: L C R, Side: L R, LFE
Sampling rate : 48.0 KHz
Bit depth : 16 bits
Compression mode : Lossy
Stream size : 278 MiB (7%)
Title : DUB [Невафильм]
Language : Russian
Audio #2
ID : 3
Format : AC-3
Format/Info : Audio Coding 3
Mode extension : CM (complete main)
Codec ID : A_AC3
Duration : 1h 41mn
Bit rate mode : Constant
Bit rate : 448 Kbps
Channel(s) : 6 channels
Channel positions : Front: L C R, Side: L R, LFE
Sampling rate : 48.0 KHz
Bit depth : 16 bits
Compression mode : Lossy
Stream size : 324 MiB (8%)
Title : MVO [Tycoon-Studio]
Language : Russian
Audio #3
ID : 4
Format : AC-3
Format/Info : Audio Coding 3
Mode extension : CM (complete main)
Codec ID : A_AC3
Duration : 1h 41mn
Bit rate mode : Constant
Bit rate : 224 Kbps
Channel(s) : 2 channels
Channel positions : Front: L R
Sampling rate : 48.0 KHz
Bit depth : 16 bits
Compression mode : Lossy
Stream size : 162 MiB (4%)
Title : MVO [СТС]
Language : Russian
Audio #4
ID : 5
Format : AC-3
Format/Info : Audio Coding 3
Mode extension : CM (complete main)
Codec ID : A_AC3
Duration : 1h 41mn
Bit rate mode : Constant
Bit rate : 448 Kbps
Channel(s) : 6 channels
Channel positions : Front: L C R, Side: L R, LFE
Sampling rate : 48.0 KHz
Bit depth : 16 bits
Compression mode : Lossy
Stream size : 324 MiB (8%)
Title : Original
Language : English
Text #1
ID : 6
Format : UTF-8
Codec ID : S_TEXT/UTF8
Codec ID/Info : UTF-8 Plain Text
Title : Full
Language : Russian
Text #2
ID : 7
Format : UTF-8
Codec ID : S_TEXT/UTF8
Codec ID/Info : UTF-8 Plain Text
Title : Forced
Language : Russian
Text #3
ID : 8
Format : UTF-8
Codec ID : S_TEXT/UTF8
Codec ID/Info : UTF-8 Plain Text
Title : Full
Language : Ukrainian
Text #4
ID : 9
Format : UTF-8
Codec ID : S_TEXT/UTF8
Codec ID/Info : UTF-8 Plain Text
Title : Forced
Language : Ukrainian
Text #5
ID : 10
Format : UTF-8
Codec ID : S_TEXT/UTF8
Codec ID/Info : UTF-8 Plain Text
Title : Full
Language : English
Text #6
ID : 11
Format : UTF-8
Codec ID : S_TEXT/UTF8
Codec ID/Info : UTF-8 Plain Text
Title : Full [SDH]
Language : English
Menu
00:00:00.000 : en:1. Opening Credits/Graduation
00:08:53.000 : en:2. Choosing a Graduation Gift
00:15:19.000 : en:3. "The Car's Name is Herbie"
00:21:33.000 : en:4. Racing Trip Murphy
00:30:22.000 : en:5. Extreme Herbie Makeover
00:45:11.000 : en:6. The Showdown
00:54:54.000 : en:7. Jealous Herbie
01:02:25.000 : en:8. Saving Herbie
01:09:51.000 : en:9. Prerace Preparations
01:21:22.000 : en:10. The Next Great Peyton
01:28:37.000 : en:11. The Big Finish
01:34:45.000 : en:12. End Credits
Скриншоты
Скачать

Скачать торрент!

Как скачивать? · Что такое торрент? · Рейтинг и ограничения

Сайт не распространяет и не хранит электронные версии произведений, а лишь предоставляет доступ к создаваемому пользователями каталогу ссылок на торрент-файлы, которые содержат только списки хеш-сумм

[Профиль] [ЛС]
Показать сообщения:    
Ответить на тему

Текущее время: Сегодня 03:11

Часовой пояс: GMT + 4



Вы не можете начинать темы
Вы не можете отвечать на сообщения
Вы не можете редактировать свои сообщения
Вы не можете удалять свои сообщения
Вы не можете голосовать в опросах
Вы не можете прикреплять файлы к сообщениям
Вы не можете скачивать файлы