Франклин / Franklyn (Джеральд МакМорроу / Gerald McMorrow) [2008, Франция, Великобритания, фантастика, фэнтези, триллер, драма, BDRemux 1080p] MVO + DVO + Sub Rus, Eng + Original Eng

Ответить на тему
 
Автор Сообщение

user ®

Стаж: 7 лет 7 месяцев

Сообщений: 20008

Пост Пост: #1 от 11-Апр-2015 17:24

[Цитировать]

Франклин / Franklyn
Страна: Франция, Великобритания
Студия: Aramid Entertainment Fund, Film4, Recorded Picture Company (RPC), UK Film Council
Жанр: фантастика, фэнтези, триллер, драма
Год выпуска: 2008
Продолжительность: 01:37:57
Перевод 1: Профессиональный (многоголосый закадровый) «Lizard Cinema Trade»
Перевод 2: Профессиональный (двухголосый закадровый)
Cубтитры: русские, английские
Оригинальная аудиодорожка: английский
Режиссер: Джеральд МакМорроу / Gerald McMorrow
В ролях: Ева Грин, Райан Филипп, Сэм Райли, Бернард Хилл, Джеймс Фолкнер, Стивен Уолтерс, Арт Малик, Сюзанна Йорк, Ричард Койл, Кика Маркам
Описание: В основе сюжета положены судьбы четырёх главных героев. Эссер — старый сломленный жизнью человек, скитающийся по переполненным бездомными и нищими улицам города в поисках своего пропавшего сына.
Майло — тридцатилетний мужчина, отчаянно пытающийся вернуть себе чистоту первой любви. Эмилия — прекрасная студентка факультета искусств, чьи работы наполнены суицидальными мыслями и смертью.
Прист — безжалостный детектив, ищущий возмездия на улицах метрополиса под названием Meanwhile City, гигантского монолита, управляемого религиозными фанатиками.
Эти четверо людей — радикально разные, но в результате их миры столкнутся друг с другом и в стремительном финале полёт одной-единственной пули разрешит судьбу героев.
Сэмпл: http://multi-up.com/1042989
Тип релиза: BDRemux 1080p / Franklyn.2008.1080p.GER.BluRay.Remux.AVC.DTS-HD.MA.5.1-WARHD
Контейнер: MKV
Видео: MPEG-4 AVC Video / 17921 kbps / 1920х1080р / 24,000 fps / 16:9 / High Profile 4.1
Аудио 1: Russian / Dolby Digital Audio / 5.1 / 48 kHz / 384 kbps - многоголосый
Аудио 2: Russian / Dolby Digital Audio / 5.1 / 48 kHz / 384 kbps - двухголосый
Аудио 3: English / DTS-HD Master Audio / 5.1 / 48 kHz / 2416 kbps / 16-bit (DTS Core: 5.1 / 48 kHz / 1509 kbps / 16-bit)
Формат субтитров: softsub (SRT)

MediaInfo
General
Unique ID : 215080079936529377177895049525347578223 (0xA1CEEAA8DC1C8723B279DFFC5D7D716F)
Complete name : D:\kirovtorrent\Franklyn.2008.1080p.BluRay.Remux.mkv
Format : Matroska
Format version : Version 4 / Version 2
File size : 14.4 GiB
Duration : 1h 37mn
Overall bit rate mode : Variable
Overall bit rate : 21.1 Mbps
Movie name : Franklyn.2008.1080p.BluRay.REMUX.AVC.DTS-HD.MA.5.1
Encoded date : UTC 2015-04-10 06:12:10
Writing application : mkvmerge v6.8.0 ('Theme for Great Cities') 64bit built on Mar 2 2014 21:34:26
Writing library : libebml v1.3.0 + libmatroska v1.4.1
Video
ID : 1
Format : AVC
Format/Info : Advanced Video Codec
Format profile : High@L4.1
Format settings, CABAC : Yes
Format settings, ReFrames : 4 frames
Codec ID : V_MPEG4/ISO/AVC
Duration : 1h 37mn
Bit rate mode : Variable
Maximum bit rate : 30.0 Mbps
Width : 1 920 pixels
Height : 1 080 pixels
Display aspect ratio : 16:9
Frame rate mode : Constant
Frame rate : 24.000 fps
Standard : NTSC
Color space : YUV
Chroma subsampling : 4:2:0
Bit depth : 8 bits
Scan type : Progressive
Title : WSmit60 & WARHD
Language : English
Default : Yes
Forced : No
Color primaries : BT.709
Transfer characteristics : BT.709
Matrix coefficients : BT.709
Audio #1
ID : 2
Format : AC-3
Format/Info : Audio Coding 3
Mode extension : CM (complete main)
Format settings, Endianness : Big
Codec ID : A_AC3
Duration : 1h 37mn
Bit rate mode : Constant
Bit rate : 384 Kbps
Channel(s) : 6 channels
Channel positions : Front: L C R, Side: L R, LFE
Sampling rate : 48.0 KHz
Bit depth : 16 bits
Compression mode : Lossy
Stream size : 269 MiB (2%)
Title : MVO R5 AC3 5.1 @ 384k
Language : Russian
Default : Yes
Forced : No
Audio #2
ID : 3
Format : AC-3
Format/Info : Audio Coding 3
Mode extension : CM (complete main)
Format settings, Endianness : Big
Codec ID : A_AC3
Duration : 1h 37mn
Bit rate mode : Constant
Bit rate : 384 Kbps
Channel(s) : 6 channels
Channel positions : Front: L C R, Side: L R, LFE
Sampling rate : 48.0 KHz
Bit depth : 16 bits
Compression mode : Lossy
Stream size : 269 MiB (2%)
Title : DVO AC3 5.1 @ 384k
Language : Russian
Default : No
Forced : No
Audio #3
ID : 4
Format : DTS
Format/Info : Digital Theater Systems
Format profile : MA / Core
Mode : 16
Format settings, Endianness : Big
Codec ID : A_DTS
Duration : 1h 37mn
Bit rate mode : Variable
Bit rate : Unknown / 1 509 Kbps
Channel(s) : 6 channels
Channel positions : Front: L C R, Side: L R, LFE
Sampling rate : 48.0 KHz
Bit depth : 16 bits
Compression mode : Lossless / Lossy
Title : ORG DTS-HD MA 5.1 @ 2416k
Language : English
Default : No
Forced : No
Text #1
ID : 5
Format : UTF-8
Codec ID : S_TEXT/UTF8
Codec ID/Info : UTF-8 Plain Text
Language : Russian
Default : No
Forced : No
Text #2
ID : 6
Format : UTF-8
Codec ID : S_TEXT/UTF8
Codec ID/Info : UTF-8 Plain Text
Language : English
Default : No
Forced : No
Menu
00:00:00.000 : en:00:00:00.000
00:06:47.667 : en:00:06:47.667
00:12:42.208 : en:00:12:42.208
00:26:12.000 : en:00:26:12.000
00:32:44.792 : en:00:32:44.792
00:43:03.750 : en:00:43:03.750
00:51:04.083 : en:00:51:04.083
00:57:59.167 : en:00:57:59.167
01:07:00.458 : en:01:07:00.458
01:14:37.333 : en:01:14:37.333
01:19:20.833 : en:01:19:20.833
01:28:36.833 : en:01:28:36.833
Скриншоты
Скачать

Скачать торрент!

Как скачивать? · Что такое торрент? · Рейтинг и ограничения

Сайт не распространяет и не хранит электронные версии произведений, а лишь предоставляет доступ к создаваемому пользователями каталогу ссылок на торрент-файлы, которые содержат только списки хеш-сумм

[Профиль] [ЛС]
Показать сообщения:    
Ответить на тему

Текущее время: Сегодня 09:45

Часовой пояс: GMT + 4



Вы не можете начинать темы
Вы не можете отвечать на сообщения
Вы не можете редактировать свои сообщения
Вы не можете удалять свои сообщения
Вы не можете голосовать в опросах
Вы не можете прикреплять файлы к сообщениям
Вы не можете скачивать файлы