Околофутбола (Антон Борматов) [2013, Россия, драма, криминал, BDRip-AVC] + Subs (Rus)

Ответить на тему
 
Автор Сообщение

user ®

Стаж: 7 лет 7 месяцев

Сообщений: 20008

Пост Пост: #1 от 11-Апр-2015 17:24

[Цитировать]

Околофутбола
«Нас не изменить!»
- Страна: Россия
Жанр: драма, криминал
Год выпуска: 2013
Продолжительность: 01:32:57-Перевод: Не требуется
Cубтитры: Русские (полные)
Навигация по главам: присутствует - 8 глав-Режиссер: Антон Борматов
В ролях: Александр Ратников, Павел Ерлыков, Григорий Иванец, Иван Фоминов, Дарья Мингазетдинова, Владимир Царулков, Юлия Маньковская-Описание: Фильм о самой закрытой части футбольных болельщиков — околофутбольных хулиганах. Они — самые агрессивные и жестокие представители мира футбольных фанатов. Они — элита околофутбола. Кем бы они ни были в обычной жизни — студентами или банкирами, музыкантами или автомеханиками, на самом деле все они — одна «фирма». Попасть в «фирму» очень сложно, но если ты в ней оказался — это на всю жизнь. И обратного пути нет.-
Download sample-Качество видео: BDRip-AVC | исх. [url=http://***/forum/viewtopic.php?t=4609143]Blu-ray disc 1080p[/url] - thx: crazy_gringo
Формат: MKV-Видео: 1 152x648 (16:9), 24.000 fps, H.264 ~3 800 kbps avg, 0.210 bit/pixel
Аудио: 48.0 kHz, AC3 Dolby Digital, 3/2 (L,C,R,l,r) + LFE ch, ~448 kbps
Субтитры: Русские (полные) | *.srt-

MediaInfo
General
Unique ID : 247993539778112939976921398038520138908 (0xBA91D184740518B9968B4FD660DC0C9C)
Complete name : D:\Фильмы\Рипы\Okolofutbola.2013.BDRip-AVC.eFK tRuAVC.mkv
Format : Matroska
Format version : Version 4 / Version 2
File size : 2.90 GiB
Duration : 1h 36mn
Overall bit rate : 4 293 Kbps
Movie name : Okolofutbola (2013) - Release for rutracker
Encoded date : UTC 2015-04-11 10:51:54
Writing application : mkvmerge v7.6.0 ('Garden of Dreams') 64bit built on Feb 8 2015 13:04:34
Writing library : libebml v1.3.1 + libmatroska v1.4.2
Attachements : cover.png
DURATION : 01:33:52.700000000
NUMBER_OF_FRAMES : 1128
NUMBER_OF_BYTES : 67700
_STATISTICS_WRITING_APP : mkvmerge v7.6.0 ('Garden of Dreams') 64bit built on Feb 8 2015 13:04:34
_STATISTICS_WRITING_DATE_UT : 2015-04-11 10:51:54
_STATISTICS_TAGS : BPS DURATION NUMBER_OF_FRAMES NUMBER_OF_BYTES
Video
ID : 1
Format : AVC
Format/Info : Advanced Video Codec
Format profile : High@L4.1
Format settings, CABAC : Yes
Format settings, ReFrames : 10 frames
Codec ID : V_MPEG4/ISO/AVC
Duration : 1h 36mn
Bit rate : 3 760 Kbps
Width : 1 152 pixels
Height : 648 pixels
Display aspect ratio : 16:9
Frame rate mode : Constant
Frame rate : 24.000 fps
Color space : YUV
Chroma subsampling : 4:2:0
Bit depth : 8 bits
Scan type : Progressive
Bits/(Pixel*Frame) : 0.210
Stream size : 2.54 GiB (88%)
Title : eFK tRuAVC
Writing library : x264 core 146 r2538kMod 121396c
Encoding settings : cabac=1 / ref=10 / deblock=1:-3:-3 / analyse=0x3:0x133 / me=umh / subme=11 / psy=1 / fade_compensate=0.00 / psy_rd=1.00:0.00 / mixed_ref=1 / me_range=32 / chroma_me=1 / trellis=2 / 8x8dct=1 / cqm=0 / deadzone=21,11 / fast_pskip=0 / chroma_qp_offset=-2 / threads=12 / lookahead_threads=3 / sliced_threads=0 / nr=0 / decimate=1 / interlaced=0 / bluray_compat=0 / constrained_intra=0 / fgo=0 / bframes=16 / b_pyramid=2 / b_adapt=2 / b_bias=0 / direct=3 / weightb=1 / open_gop=0 / weightp=2 / keyint=250 / keyint_min=24 / scenecut=40 / intra_refresh=0 / rc_lookahead=60 / rc=crf / mbtree=0 / crf=18.0000 / qcomp=0.60 / qpmin=0 / qpmax=69 / qpstep=4 / vbv_maxrate=50000 / vbv_bufsize=62500 / crf_max=0.0 / nal_hrd=none / filler=0 / ip_ratio=1.40 / pb_ratio=1.30 / aq=3:0.80
Language : Russian
Default : Yes
Forced : No
Color primaries : BT.709
Transfer characteristics : BT.709
Matrix coefficients : BT.709
Color range : Limited
DURATION : 01:36:49.584000000
NUMBER_OF_FRAMES : 139430
NUMBER_OF_BYTES : 2790323080
_STATISTICS_WRITING_APP : mkvmerge v7.6.0 ('Garden of Dreams') 64bit built on Feb 8 2015 13:04:34
_STATISTICS_WRITING_DATE_UT : 2015-04-11 10:51:54
_STATISTICS_TAGS : BPS DURATION NUMBER_OF_FRAMES NUMBER_OF_BYTES
Audio
ID : 2
Format : AC-3
Format/Info : Audio Coding 3
Mode extension : CM (complete main)
Format settings, Endianness : Big
Codec ID : A_AC3
Duration : 1h 36mn
Bit rate mode : Constant
Bit rate : 448 Kbps
Channel(s) : 6 channels
Channel positions : Front: L C R, Side: L R, LFE
Sampling rate : 48.0 KHz
Bit depth : 16 bits
Compression mode : Lossy
Stream size : 310 MiB (10%)
Language : Russian
Default : Yes
Forced : No
Text
ID : 3
Format : UTF-8
Codec ID : S_TEXT/UTF8
Codec ID/Info : UTF-8 Plain Text
Title : полные
Language : Russian
Default : No
Forced : No
Menu
00:00:00.000 : :Chapter 01
00:10:58.291 : :Chapter 02
00:23:09.250 : :Chapter 03
00:36:29.958 : :Chapter 04
00:48:11.250 : :Chapter 05
01:01:39.458 : :Chapter 06
01:13:50.000 : :Chapter 07
01:23:49.666 : :Chapter 08
x264 log
x264 [info]: frame I:1031 Avg QP:15.77 size: 85094
x264 [info]: frame P:39740 Avg QP:17.56 size: 34728
x264 [info]: frame B:98659 Avg QP:20.39 size: 13405
x264 [info]: consecutive B-frames: 5.5% 7.2% 16.8% 28.5% 15.8% 22.9% 2.2% 0.4% 0.3% 0.1% 0.1% 0.0% 0.0% 0.1% 0.0% 0.0% 0.1%
x264 [info]: mb I I16..4: 7.2% 74.2% 18.6%
x264 [info]: mb P I16..4: 2.5% 20.6% 2.9% P16..4: 27.5% 29.1% 8.8% 1.2% 0.1% skip: 7.4%
x264 [info]: mb B I16..4: 0.6% 3.0% 0.3% B16..8: 34.7% 20.2% 3.2% direct: 6.5% skip:31.5% L0:40.7% L1:45.8% BI:13.5%
x264 [info]: 8x8 transform intra:78.3% inter:68.7%
x264 [info]: direct mvs spatial:100.0% temporal:0.0%
x264 [info]: coded y,uvDC,uvAC intra: 72.9% 80.3% 61.4% inter: 25.5% 29.2% 7.7%
x264 [info]: i16 v,h,dc,p: 35% 14% 5% 47%
x264 [info]: i8 v,h,dc,ddl,ddr,vr,hd,vl,hu: 12% 8% 10% 9% 12% 12% 12% 12% 13%
x264 [info]: i4 v,h,dc,ddl,ddr,vr,hd,vl,hu: 16% 9% 11% 7% 13% 12% 11% 9% 11%
x264 [info]: i8c dc,h,v,p: 37% 25% 20% 18%
x264 [info]: Weighted P-Frames: Y:4.1% UV:3.2%
x264 [info]: ref P L0: 51.6% 10.8% 15.4% 6.2% 4.4% 3.4% 2.8% 1.8% 1.6% 1.6% 0.4% 0.0%
x264 [info]: ref B L0: 79.4% 9.6% 4.3% 2.1% 1.6% 1.2% 1.0% 0.5% 0.3%
x264 [info]: ref B L1: 94.1% 5.9%
x264 [info]: kb/s:3842.37
x264 [total]: encoded 139430 frames, 7.31 fps, 3842.37 kb/s, duration 5:17:43.92
Screenshots Comparison
Скачать

Скачать торрент!

Как скачивать? · Что такое торрент? · Рейтинг и ограничения

Сайт не распространяет и не хранит электронные версии произведений, а лишь предоставляет доступ к создаваемому пользователями каталогу ссылок на торрент-файлы, которые содержат только списки хеш-сумм

[Профиль] [ЛС]
Показать сообщения:    
Ответить на тему

Текущее время: Сегодня 20:12

Часовой пояс: GMT + 4



Вы не можете начинать темы
Вы не можете отвечать на сообщения
Вы не можете редактировать свои сообщения
Вы не можете удалять свои сообщения
Вы не можете голосовать в опросах
Вы не можете прикреплять файлы к сообщениям
Вы не можете скачивать файлы