Аватар / Avtaar (Мохан Кумар / Mohan Kumar) [1983, Индия, Драма, DVDRip] VO

Ответить на тему
 
Автор Сообщение

user ®

Стаж: 12 лет

Сообщений: 15092

Пост Пост: #1 от 10-Апр-2015 19:42

[Цитировать]

Аватар / Avtaar
Страна: Индия
Жанр: Драма
Год выпуска: 1983
Продолжительность: 02:30:07
Перевод: Одноголосый закадровый
Cубтитры: нет
Режиссер: Мохан Кумар / Mohan Kumar
В ролях: Раджеш Кханна, Шабана Азми, Сачин, Суджит Кумар, А.К. Хангал, Юнус Парвез, Пинчу Капур, Гульшан Гровер, Шаши Пури, Прити Сапру Валия
Описание: Жизнь не стоит на месте. Прогресс набирает темп. И старшее поколение неожиданно оказывается на обочине жизни, обнаруживая, что его жизненные ценности ничего не значат для молодежи. Аватар оказывается именно в такой ситуации. Но он не сдается и стойко переносит удары судьбы.
Доп. информация:
Работа со звуком и рип Vik555 (Спасибо!)
Сэмпл: http://multi-up.com/1042974
Качество видео: DVDRip
Формат видео: AVI
Видео: XviD MPEG-4, 640x480 (1.33:1), 29.970 fps, 1299 kbps avg
Аудио: AC3 Dolby Digital, 48 kHz, 2/0 (L,R) ch, 192 kbps
MediaInfo
General
Complete name : F:\Avtaar.1983.DVDRip.BwTorrents.avi
Format : AVI
Format/Info : Audio Video Interleave
File size : 1.58 GiB
Duration : 2h 30mn
Overall bit rate : 1 503 Kbps
Writing application : VirtualDubMod 1.5.10.2 (build 2540/release)
Writing library : VirtualDubMod build 2540/release
Video
ID : 0
Format : MPEG-4 Visual
Format profile : AdvancedSimple@L5
Format settings, BVOP : Yes
Format settings, QPel : No
Format settings, GMC : No warppoints
Format settings, Matrix : Default (H.263)
Muxing mode : Packed bitstream
Codec ID : XVID
Codec ID/Hint : XviD
Duration : 2h 30mn
Bit rate : 1 299 Kbps
Width : 640 pixels
Height : 480 pixels
Display aspect ratio : 4/3
Frame rate : 29.970 fps
Resolution : 24 bits
Colorimetry : 4:2:0
Scan type : Progressive
Bits/(Pixel*Frame) : 0.141
Stream size : 1.36 GiB (86%)
Writing library : XviD 64
Audio
ID : 1
Format : AC-3
Format/Info : Audio Coding 3
Codec ID : 2000
Duration : 2h 30mn
Bit rate mode : Constant
Bit rate : 192 Kbps
Channel(s) : 2 channels
Channel positions : L R
Sampling rate : 48.0 KHz
Stream size : 206 MiB (13%)
Alignment : Split accross interleaves
Interleave, duration : 33 ms (1.00 video frame)
Interleave, preload duration : 500 ms
Скриншоты
Скачать

Скачать торрент! Аватар / Avtaar (Мохан Кумар / Mohan Kumar) [1983, Индия, Драма, DVDRip] VO

Как скачивать? · Что такое торрент? · Рейтинг и ограничения

Сайт не распространяет и не хранит электронные версии произведений, а лишь предоставляет доступ к создаваемому пользователями каталогу ссылок на торрент-файлы, которые содержат только списки хеш-сумм

[Профиль] [ЛС]
Показать сообщения:    
Ответить на тему

Текущее время: Сегодня 02:30

Часовой пояс: GMT + 4



Вы не можете начинать темы
Вы не можете отвечать на сообщения
Вы не можете редактировать свои сообщения
Вы не можете удалять свои сообщения
Вы не можете голосовать в опросах
Вы не можете прикреплять файлы к сообщениям
Вы не можете скачивать файлы