Феи: Волшебное спасение / Tinker Bell and the Great Fairy Rescue (Брэдли Рэймонд / Bradley Raymond) [2010, фэнтези, приключения, семейный, BDRip-AVC] Dub + Dub (Ukr) + Rus, Ukr, Eng Sub + Original Eng

Ответить на тему
 
Автор Сообщение

user ®

Стаж: 12 лет

Сообщений: 15145

Пост Пост: #1 от 10-Апр-2015 07:18

[Цитировать]


Феи: Волшебное спасение | Tinker Bell and the Great Fairy Rescue
- Страна: США
Жанр: фэнтези, приключения, семейный
Продолжительность: 01:16:27
Год выпуска: 2010
Перевод: Профессиональный (дублированный)
Перевод 2: Профессиональный (дублированный) Ukr
Русские субтитры: есть
Режиссёр: Брэдли Рэймонд / Bradley Raymond
Роли озвучивали: Майкл Шин (Michael Sheen), Мэй Уитман (Mae Whitman), Кристин Ченоуэт (Kristin Chenoweth), Памела Адлон (Pamela Adlon), Люси Лью (Lucy Liu), Рэйвен Симон (Raven-Symoné), Джесси Макартни (Jesse McCartney), Джеф Бенет (Jeff Bennett), Роб Паулсен (Rob Paulsen)-ОписаниеОднажды Фея Динь-Динь встретила Лизи, маленькую девочку с твердой верой в волшебство. У Динь-Динь возникает привязанность к любопытной девочке, которой так нужен друг. Ради нее она идет на огромный риск, подвергая опасности свою жизнь и будущее всей страны Фей.-
«Феи: Волшебное спасение» (Tinker Bell and the Great Fairy Rescue) — полнометражный компьютерный мультфильм 2010 года, выпущенный компанией DisneyToon Studios. Является продолжением мультфильмов «Феи» и «Феи: Потерянное сокровище».
Сэмпл

IMDb: 7.00 (3664)
Качество: BDRip-AVC [url=http://***/forum/viewtopic.php?t=3157485]BDRemux 1080p[/url]
Формат: MKV
Видео: AVC 3282 Kbps 1152 x 648 (1.778) 23.976 fps
Аудио: AC-3 384 Kbps 6 channels, 48.0 KHz Rus DUB
Аудио 2: AC-3 384 Kbps 6 channels, 48.0 KHz Ukr DUB
Аудио 3: AC-3 384 Kbps 6 channels, 48.0 KHz Eng
Субтитры: Rus (Forced, Full), Ukr (Forced, Full), Eng SRT
MI | Log
Log
x264 [info]: frame I:851 Avg QP:14.61 size:123931
x264 [info]: frame P:26359 Avg QP:16.07 size: 34130
x264 [info]: frame B:82770 Avg QP:18.98 size: 11197
x264 [info]: consecutive B-frames: 2.6% 2.9% 16.3% 24.5% 19.2% 26.3% 2.7% 2.0% 1.3% 0.8% 0.4% 0.8% 0.2% 0.1% 0.1%
x264 [info]: mb I I16..4: 6.3% 68.9% 24.8%
x264 [info]: mb P I16..4: 1.2% 13.4% 2.3% P16..4: 27.6% 28.7% 12.1% 2.8% 0.4% skip:11.6%
x264 [info]: mb B I16..4: 0.4% 2.0% 0.3% B16..8: 27.7% 18.3% 3.6% direct: 4.9% skip:42.8% L0:42.7% L1:43.7% BI:13.6%
x264 [info]: 8x8 transform intra:76.3% inter:54.2%
x264 [info]: direct mvs spatial:99.9% temporal:0.1%
x264 [info]: coded y,uvDC,uvAC intra: 86.6% 88.2% 70.2% inter: 19.0% 17.8% 5.3%
x264 [info]: i16 v,h,dc,p: 46% 4% 5% 45%
x264 [info]: i8 v,h,dc,ddl,ddr,vr,hd,vl,hu: 13% 9% 7% 9% 12% 12% 12% 12% 14%
x264 [info]: i4 v,h,dc,ddl,ddr,vr,hd,vl,hu: 15% 7% 4% 8% 16% 14% 13% 11% 12%
x264 [info]: i8c dc,h,v,p: 41% 23% 19% 17%
x264 [info]: Weighted P-Frames: Y:4.3% UV:2.8%
x264 [info]: ref P L0: 51.4% 8.3% 17.0% 6.6% 4.6% 3.2% 2.8% 1.6% 1.5% 1.3% 1.3% 0.4% 0.0%
x264 [info]: ref B L0: 69.2% 14.0% 5.9% 4.1% 2.1% 1.6% 1.3% 0.9% 0.5% 0.3%
x264 [info]: ref B L1: 91.7% 8.3%
x264 [info]: kb/s:3369.31
x264 [total]: encoded 109980 frames, 7.88 fps, 3369.31 kb/s, duration 3:52:31.75
Format                                   : MatroskaFormat version                           : Version 4 / Version 2File size                                : 2.42 GiBDuration                                 : 1h 16mnOverall bit rate                         : 4 524 KbpsEncoded date                             : UTC 2015-03-15 02:01:56Writing application                      : mkvmerge v6.7.0 ('Back to the Ground') 32bit built on Jan  8 2014 15:03:17Writing library                          : libebml v1.3.0 + libmatroska v1.4.1
VideoID : 1Format : AVCFormat/Info : Advanced Video CodecFormat profile : High@L4.1Format settings, CABAC : YesFormat settings, ReFrames : 11 framesCodec ID : V_MPEG4/ISO/AVCDuration : 1h 16mnBit rate : 3 282 KbpsWidth : 1 152 pixelsHeight : 648 pixelsDisplay aspect ratio : 16:9Frame rate mode : ConstantFrame rate : 23.976 fpsColor space : YUVChroma subsampling : 4:2:0Bit depth : 8 bitsScan type : ProgressiveBits/(Pixel*Frame) : 0.183Stream size : 1.75 GiB (73%)Title : Tinker Bell and the Great Fairy Rescue (2010) [***]Writing library : x264 core 144 r2525kMod 40bb568Encoding settings : cabac=1 / ref=11 / deblock=1:-2:-1 / analyse=0x3:0x133 / me=umh / subme=11 / psy=1 / fade_compensate=0.00 / psy_rd=1.00:0.05 / mixed_ref=1 / me_range=32 / chroma_me=1 / trellis=2 / 8x8dct=1 / cqm=0 / deadzone=21,11 / fast_pskip=0 / chroma_qp_offset=-3 / threads=12 / lookahead_threads=3 / sliced_threads=0 / nr=0 / decimate=1 / interlaced=0 / bluray_compat=0 / constrained_intra=0 / fgo=0 / bframes=14 / b_pyramid=2 / b_adapt=2 / b_bias=0 / direct=3 / weightb=1 / open_gop=0 / weightp=2 / keyint=250 / keyint_min=23 / scenecut=40 / intra_refresh=0 / rc_lookahead=80 / rc=crf / mbtree=0 / crf=17.3000 / qcomp=0.60 / qpmin=0 / qpmax=69 / qpstep=4 / vbv_maxrate=50000 / vbv_bufsize=62500 / crf_max=0.0 / nal_hrd=none / filler=0 / ip_ratio=1.40 / pb_ratio=1.30 / aq=3:0.90Language : EnglishDefault : YesForced : No
Audio #1ID : 2Format : AC-3Format/Info : Audio Coding 3Mode extension : CM (complete main)Format settings, Endianness : BigCodec ID : A_AC3Duration : 1h 16mnBit rate mode : ConstantBit rate : 384 KbpsChannel(s) : 6 channelsChannel positions : Front: L C R, Side: L R, LFESampling rate : 48.0 KHzBit depth : 16 bitsCompression mode : LossyStream size : 210 MiB (8%)Title : DubLanguage : RussianDefault : YesForced : No
Audio #2ID : 3Format : AC-3Format/Info : Audio Coding 3Mode extension : CM (complete main)Format settings, Endianness : BigCodec ID : A_AC3Duration : 1h 16mnBit rate mode : ConstantBit rate : 384 KbpsChannel(s) : 6 channelsChannel positions : Front: L C R, Side: L R, LFESampling rate : 48.0 KHzBit depth : 16 bitsCompression mode : LossyStream size : 210 MiB (8%)Title : DubLanguage : UkrainianDefault : NoForced : No
Audio #3ID : 4Format : AC-3Format/Info : Audio Coding 3Mode extension : CM (complete main)Format settings, Endianness : BigCodec ID : A_AC3Duration : 1h 16mnBit rate mode : ConstantBit rate : 384 KbpsChannel(s) : 6 channelsChannel positions : Front: L C R, Side: L R, LFESampling rate : 48.0 KHzBit depth : 16 bitsCompression mode : LossyStream size : 210 MiB (8%)Title : OriginalLanguage : EnglishDefault : NoForced : No
Text #1ID : 5Format : UTF-8Codec ID : S_TEXT/UTF8Codec ID/Info : UTF-8 Plain TextTitle : ForcedLanguage : RussianDefault : YesForced : No
Text #2ID : 6Format : UTF-8Codec ID : S_TEXT/UTF8Codec ID/Info : UTF-8 Plain TextTitle : FullLanguage : RussianDefault : NoForced : No
Text #3ID : 7Format : UTF-8Codec ID : S_TEXT/UTF8Codec ID/Info : UTF-8 Plain TextTitle : ForcedLanguage : UkrainianDefault : NoForced : No
Text #4ID : 8Format : UTF-8Codec ID : S_TEXT/UTF8Codec ID/Info : UTF-8 Plain TextTitle : FullLanguage : UkrainianDefault : NoForced : No
Text #5ID : 9Format : UTF-8Codec ID : S_TEXT/UTF8Codec ID/Info : UTF-8 Plain TextTitle : SDHLanguage : EnglishDefault : NoForced : No
Menu00:00:00.000 : en:00:00:00.00000:05:40.549 : en:00:05:40.54900:11:25.226 : en:00:11:25.22600:16:54.889 : en:00:16:54.88900:22:36.981 : en:00:22:36.98100:27:39.533 : en:00:27:39.53300:35:22.829 : en:00:35:22.82900:42:18.202 : en:00:42:18.20200:48:14.266 : en:00:48:14.26600:56:11.159 : en:00:56:11.15900:59:58.929 : en:00:59:58.92901:09:48.393 : en:01:09:48.393
Скриншоты
Скачать

Скачать торрент! Феи: Волшебное спасение / Tinker Bell and the Great Fairy Rescue (Брэдли Рэймонд / Bradley Raymond) [2010, фэнтези, приключения, семейный, BDRip-AVC] Dub + Dub (Ukr) + Rus, Ukr, Eng Sub + Original Eng

Как скачивать? · Что такое торрент? · Рейтинг и ограничения

Сайт не распространяет и не хранит электронные версии произведений, а лишь предоставляет доступ к создаваемому пользователями каталогу ссылок на торрент-файлы, которые содержат только списки хеш-сумм

[Профиль] [ЛС]
Показать сообщения:    
Ответить на тему

Текущее время: Сегодня 12:15

Часовой пояс: GMT + 4



Вы не можете начинать темы
Вы не можете отвечать на сообщения
Вы не можете редактировать свои сообщения
Вы не можете удалять свои сообщения
Вы не можете голосовать в опросах
Вы не можете прикреплять файлы к сообщениям
Вы не можете скачивать файлы