Замедленная съемка / Замедленное видео / Slow Video / Seullowoo (Ён-Так Ким / Young-Tak Kim) [2014, Южная Корея, США, комедия, семейный, WEB-DLRip] MVO

Ответить на тему
 
Автор Сообщение

user ®

Стаж: 13 лет

Сообщений: 15071

Пост Пост: #1 от 10-Апр-2015 01:09

[Цитировать]

Замедленная съемка / Замедленное видео / Slow Video / Seullowoo- -Страна: Южная Корея, США
Жанр: комедия, семейный
Год выпуска: 2014
Продолжительность: 01:46:00-Перевод: Любительский (многоголосый закадровый) [Watanabe, Romashka, Izanami, Gyllor, Satana-san, MIX - MAN] по переводу FSG ❖Black pearl❖-Cубтитры: нет
Оригинальная аудиодорожка: нет
Режиссер: Ён-Так Ким / Young-Tak Kim
В ролях: Чха Тхэ Хён, Go Chang-seok, Jin Gyeong, Нам Сан Ми, О Даль Су
Описание: Ё Джан Бу обладает невероятно острым зрением. Он способен видеть вещи, которые простые люди не могут. В детстве над ним из-за этого смеялись. Поэтому 20 лет он провел, не выходя из дома и смотря дорамы по телевизору. Наконец, Джан Бу решает выйти за пределы своего убежища, и неожиданно становится асом центра управления скрытого видеонаблюдения.
Релиз от -
Семпл: http://multi-up.com/1042936
Качество видео: WEB-DLRip
Формат видео: AVI
Видео: MPEG-4 Visual at 1830 Кбит/сек; 704 x 304 (2.316) at 23.976 fps
Аудио: MPEG Audio at 128 Кбит/сек; 2 канала, 48,0 КГц
Автор -
MediaInfo
Общее
Полное имя : D:\Фильмы\Азиатские\Замедленная съемка\Slow Video.2014.WEB-DLRip.1400MB. rip by [Assassin's Creed].avi
Формат : AVI
Формат/Информация : Audio Video Interleave
Размер файла : 1,46 Гбайт
Продолжительность : 1 ч. 46 м.
Общий поток : 1967 Кбит/сек
Программа кодирования : VirtualDubMod 1.5.10.3 | www.virtualdub-fr.org || (build 2550/release)
Библиотека кодирования : VirtualDubMod build 2550/release
Видео
Идентификатор : 0
Формат : MPEG-4 Visual
Профиль формата : Advanced Simple@L5
Параметр BVOP формата : 1
Параметр QPel формата : Нет
Параметр GMC формата : Без точки перехода
Параметр матрицы формата : Default (MPEG)
Идентификатор кодека : XVID
Идентификатор кодека/Подсказка : XviD
Продолжительность : 1 ч. 46 м.
Битрейт : 1830 Кбит/сек
Ширина : 704 пикселя
Высота : 304 пикселя
Соотношение сторон : 2,35:1
Частота кадров : 23,976 кадра/сек
Цветовое пространство : YUV
Субдискретизация насыщенности : 4:2:0
Битовая глубина : 8 бит
Тип развёртки : Прогрессивная
Метод сжатия : С потерями
Бит/(Пиксели*Кадры) : 0.357
Размер потока : 1,35 Гбайт (93%)
Библиотека кодирования : XviD 1.2.1 (UTC 2008-12-04)
Аудио
Идентификатор : 1
Формат : MPEG Audio
Версия формата : Version 1
Профиль формата : Layer 3
Идентификатор кодека : 55
Идентификатор кодека/Подсказка : MP3
Продолжительность : 1 ч. 46 м.
Вид битрейта : Постоянный
Битрейт : 128 Кбит/сек
Каналы : 2 канала
Частота : 44,1 КГц
Метод сжатия : С потерями
Размер потока : 97,0 Мбайт (7%)
Выравнивание : Разделение по промежуткам
Продолжительность промежутка : 42 мс. (1,00 видеокадр)
Время предзагрузки промежутка : 500 мс.
Библиотека кодирования : LAME3.99r
Настройки программы : -m s -V 4 -q 2 -lowpass 17 -b 128
Скриншот c названием фильма Скриншоты
Скачать

Скачать торрент! Замедленная съемка / Замедленное видео / Slow Video / Seullowoo (Ён-Так Ким / Young-Tak Kim) [2014, Южная Корея, США, комедия, семейный, WEB-DLRip] MVO

Как скачивать? · Что такое торрент? · Рейтинг и ограничения

Сайт не распространяет и не хранит электронные версии произведений, а лишь предоставляет доступ к создаваемому пользователями каталогу ссылок на торрент-файлы, которые содержат только списки хеш-сумм

[Профиль] [ЛС]
Показать сообщения:    
Ответить на тему

Текущее время: Сегодня 11:23

Часовой пояс: GMT + 4



Вы не можете начинать темы
Вы не можете отвечать на сообщения
Вы не можете редактировать свои сообщения
Вы не можете удалять свои сообщения
Вы не можете голосовать в опросах
Вы не можете прикреплять файлы к сообщениям
Вы не можете скачивать файлы