Яркая радуга и похитительница звезд / Rainbow Brite and the Star Stealer (Бернар Дейрьес / Bernard Deyriès, Кимио Ябуки / Kimio Yabuki) [1985, мультфильм, фэнтези, приключения, семейный, DVDRip] AVO (Андрей Дольский) + Sub Eng + Original Eng

Ответить на тему
 
Автор Сообщение

user ®

Стаж: 12 лет

Сообщений: 15145

Пост Пост: #1 от 09-Апр-2015 22:03

[Цитировать]

Яркая радуга и похитительница звезд / Rainbow Brite and the Star Stealer
Слоган: «Rainbow Brite lights up the screen in her first big movie» Страна: США, Япония
Жанр: мультфильм, фэнтези, приключения, семейный
Продолжительность: 01:24:44
Год выпуска: 1985
Перевод: Авторский (одноголосый закадровый) - Андрей Дольский
Русские субтитры: нет
Режиссёр: Бернар Дейрьес / Bernard Deyriès, Кимио Ябуки / Kimio Yabuki
Роли озвучивали: Беттина Буш, Пэт Фрэли, Питер Каллен, Робби Ли, Андрэ Стойка, Дэвид Менденхолл, Ронда Олдрич, Лес Тремейн, Мона Маршалл, Джонатан Харрис ...
Описание: Радуга Брит и ее конь Старлайт летят из земель радуги на нашу землю чтоб позволить весне начаться.
Темная Принцесса хочет украсть единственный источник света во вселенной - Спектру. Если Спектры не будет в нужном месте, все погрузится во мрак... Вся надежда на Радужную Королеву и ее нового приятеля Криса.
Доп. информация: Рип сделан из этого [url=http://***/forum/viewtopic.php?t=4981757]DVD5[/url]. (Который на постере)-- --Rainbow Brite and the Star Stealer (1985)_DVDRip_Sample_.avi--Качество: DVDRip
Формат: AVI
Видео: 640x480 (1.33:1), 23.976 fps, XviD build 50 ~2078 kbps avg, 0.28 bit/pixel
Аудио 1: 48 kHz, AC3 Dolby Digital, 2/0 (L,R) ch, ~192 kbps, Русский
Аудио 2: 48 kHz, AC3 Dolby Digital, 2/0 (L,R) ch, ~192 kbps, Английский
Субтитры: английские
AviInfo
File: Rainbow Brite and the Star Stealer (1985)_DVDRip_.avi
Title: Rainbow Brite and the Star Stealer (1985)
Copyleft: Ripped_by_rjhlb777
Genre: Family/Musical
Category: Cartoon
Comment: AVO (Андрей Дольский) + Original Eng
FileSize: 1501.29 Mb ( 1 574 217 728 bytes )
Play length: 01:24:44.579 (121908 frames)
Subtitles: ENG_ (SubRip format)
Video: 640x480 (1.33:1), 23.976 fps, XviD build 50 ~2078 kbps avg, 0.28 bit/pixel
Audio #1: 48 kHz, AC3 Dolby Digital, 2/0 (L,R) ch, ~192 kbps
Audio #2: 48 kHz, AC3 Dolby Digital, 2/0 (L,R) ch, ~192 kbps
Подробные технические данные
GeneralComplete name : C:\Temp\_RELEASES_\Rainbow Brite and the Star Stealer (1985)_DVDRip_\Rainbow Brite and the Star Stealer (1985)_DVDRip_.aviFormat : AVIFormat/Info : Audio Video InterleaveFile size : 1.47 GiBDuration : 1h 24mnOverall bit rate : 2 477 KbpsMovie name : Rainbow Brite and the Star Stealer (1985)Genre : Family/MusicalWriting application : VirtualDubMod 1.5.10.3 | www.virtualdub-fr.org || (build 2550/release)Original source form/Name : CartoonCopyright : Ripped_by_rjhlb777Comment : AVO (Андрей Дольский) + Original Eng
VideoID : 0Format : MPEG-4 VisualFormat profile : Advanced Simple@L5Format settings, BVOP : 2Format settings, QPel : NoFormat settings, GMC : No warppointsFormat settings, Matrix : Default (H.263)Codec ID : XVIDCodec ID/Hint : XviDDuration : 1h 24mnBit rate : 2 079 KbpsWidth : 640 pixelsHeight : 480 pixelsDisplay aspect ratio : 4:3Frame rate : 23.976 fpsColor space : YUVChroma subsampling : 4:2:0Bit depth : 8 bitsScan type : ProgressiveCompression mode : LossyBits/(Pixel*Frame) : 0.282Stream size : 1.23 GiB (84%)Writing library : XviD 1.2.1 (UTC 2008-12-04)
Audio #1ID : 1Format : AC-3Format/Info : Audio Coding 3Mode extension : CM (complete main)Format settings, Endianness : BigCodec ID : 2000Duration : 1h 24mnBit rate mode : ConstantBit rate : 192 KbpsChannel(s) : 2 channelsChannel positions : Front: L RSampling rate : 48.0 KHzBit depth : 16 bitsCompression mode : LossyStream size : 116 MiB (8%)Alignment : Split accross interleavesInterleave, duration : 42 ms (1.00 video frame)Interleave, preload duratio : 500 ms
Audio #2ID : 2Format : AC-3Format/Info : Audio Coding 3Mode extension : CM (complete main)Format settings, Endianness : BigCodec ID : 2000Duration : 1h 24mnBit rate mode : ConstantBit rate : 192 KbpsChannel(s) : 2 channelsChannel positions : Front: L RSampling rate : 48.0 KHzBit depth : 16 bitsCompression mode : LossyStream size : 116 MiB (8%)Alignment : Split accross interleavesInterleave, duration : 42 ms (1.00 video frame)Interleave, preload duratio : 500 ms
Скриншоты сравнения
lex2085 [url=http://***/forum/viewtopic.php?t=1726070]http://***/forum/viewtopic.php?t=1726070[/url]
http://screenshotcomparison.com/comparison/121136/picture:4
Скриншоты
Скачать

Скачать торрент! Яркая радуга и похитительница звезд / Rainbow Brite and the Star Stealer (Бернар Дейрьес / Bernard Deyriès, Кимио Ябуки / Kimio Yabuki) [1985, мультфильм, фэнтези, приключения, семейный, DVDRip] AVO (Андрей Дольский) + Sub Eng + Original Eng

Как скачивать? · Что такое торрент? · Рейтинг и ограничения

Сайт не распространяет и не хранит электронные версии произведений, а лишь предоставляет доступ к создаваемому пользователями каталогу ссылок на торрент-файлы, которые содержат только списки хеш-сумм

[Профиль] [ЛС]
Показать сообщения:    
Ответить на тему

Текущее время: Сегодня 21:18

Часовой пояс: GMT + 4



Вы не можете начинать темы
Вы не можете отвечать на сообщения
Вы не можете редактировать свои сообщения
Вы не можете удалять свои сообщения
Вы не можете голосовать в опросах
Вы не можете прикреплять файлы к сообщениям
Вы не можете скачивать файлы