1944 / 1944 (Элмо Нюганен / Elmo Nuganen) [2015, Эстония, драма, военный, DVDRip] VO (Shoegaze)

Ответить на тему
 
Автор Сообщение

user ®

Стаж: 7 лет 7 месяцев

Сообщений: 20008

Пост Пост: #1 от 09-Апр-2015 09:39

[Цитировать]

1944 / 1944 Информация о фильме:
Страна: Эстония
Жанр: драма, военный
Год выпуска: 2015
Продолжительность: 01:36:00
Перевод: Любительский (одноголосый) / Озвучено: by Shoegaze
Cубтитры: нет
Режиссер: Элмо Нюганен / Elmo Nüganen
В ролях: Кристиан Юкскюла, Каспар Велберг, Майкен Шмидт, Хендрик Калмет, Карл-Андреас Калмет, Прийт Пиус, Мярт Пиус, Хендрик Тоомпере-мл., Гердт Раудсеп, Майт Малмстен, Пеэтер Таммеару, Айн Мяэотс, Райн Симмул, Кристьян Сарв, Иво Ууккиви, Андеро Эрмел, Анне Реэманн, Тыну Оя и др.
Описание: В сентябре 1944 года у высот Синимяэ вблизи нынешней эстонско-российской границы шли ожесточенные бои. Наступление советской армии сдерживали немецко-фашистские войска, в составе которых сражалась и 20-я эстонская дивизия СС. Когда была отбита одна из атак и ожидалось второе наступление советских войск, на близлежащую железнодорожную станцию через минное поле пробирается эстонский лейтенант. В поезде он встречается с молодыми новобранцами. В течение недели лейтенант в окопах готовит из них солдат.
IMDB 8,4/10 from 503 (users) / КиноПоиск 3.5/10 81 (users)

Исходник: [url=http://***/forum/viewtopic.php?t=4979911]Ссылка[/url]
Сэмпл: http://multi-up.com/1042786
Файл
Качество видео: DVDRip
Формат видео: AVI
Видео: 720x304 (2,35:1), 25 fps, XviD, 1571 Кбит/сек
Аудио: 448 Кбит/сек, 6 каналов, 16 бит, 48 КГц, AC3
MediaInfo
General
Complete name : 1944.2015.DVDRip.Xvid.Rus.by Shoegaze.avi
Format : AVI
Format/Info : Audio Video Interleave
File size : 1.36 GiB
Duration : 1h 36mn
Overall bit rate : 2 028 Kbps
Writing application : VirtualDubMod 1.5.10.3 (build 2550/release)
Writing library : VirtualDubMod build 2550/release
Comment : i
Video
ID : 0
Format : MPEG-4 Visual
Format profile : Advanced Simple@L5
Format settings, BVOP : 2
Format settings, QPel : No
Format settings, GMC : No warppoints
Format settings, Matrix : Default (H.263)
Codec ID : XVID
Codec ID/Hint : XviD
Duration : 1h 36mn
Bit rate : 1 571 Kbps
Width : 720 pixels
Height : 304 pixels
Display aspect ratio : 2.35:1
Frame rate : 25.000 fps
Color space : YUV
Chroma subsampling : 4:2:0
Bit depth : 8 bits
Scan type : Progressive
Compression mode : Lossy
Bits/(Pixel*Frame) : 0.287
Stream size : 1.05 GiB (77%)
Writing library : XviD 64
Audio
ID : 1
Format : AC-3
Format/Info : Audio Coding 3
Mode extension : CM (complete main)
Format settings, Endianness : Big
Codec ID : 2000
Duration : 1h 35mn
Bit rate mode : Constant
Bit rate : 448 Kbps
Channel(s) : 6 channels
Channel positions : Front: L C R, Side: L R, LFE
Sampling rate : 48.0 KHz
Bit depth : 16 bits
Compression mode : Lossy
Stream size : 307 MiB (22%)
Alignment : Split accross interleaves
Interleave, duration : 40 ms (1.00 video frame)
Interleave, preload duratio : 500 ms
Скриншот c названием фильма Скриншоты
Скачать

Скачать торрент!

Как скачивать? · Что такое торрент? · Рейтинг и ограничения

Сайт не распространяет и не хранит электронные версии произведений, а лишь предоставляет доступ к создаваемому пользователями каталогу ссылок на торрент-файлы, которые содержат только списки хеш-сумм

[Профиль] [ЛС]
Показать сообщения:    
Ответить на тему

Текущее время: Сегодня 10:09

Часовой пояс: GMT + 4



Вы не можете начинать темы
Вы не можете отвечать на сообщения
Вы не можете редактировать свои сообщения
Вы не можете удалять свои сообщения
Вы не можете голосовать в опросах
Вы не можете прикреплять файлы к сообщениям
Вы не можете скачивать файлы