На полпути в Париж (Ярополк Лапшин) [2001 г., драма, комедия, TVRip]

Ответить на тему
 
Автор Сообщение

user ®

Стаж: 7 лет 7 месяцев

Сообщений: 20008

Пост Пост: #1 от 08-Апр-2015 15:03

[Цитировать]

На полпути в Париж Год выпуска: 2001.
Жанр: драма, комедия.
Продолжительность: 01:15:08.
Режиссер: Ярополк Лапшин.
В ролях:
Владимир Андреев, Аристарх Ливанов, Юрий Назаров, Михаил Глузский, Людмила Зайцева, Наталия Потапова, Любовь Соколова, Виталий Краев, Константин Шавкунов.
Описание:
Матвей Терентьевич Данилов, крупный российский ученый, академик, потеряв всякую надежду на возможность продолжить свою научную работу в России, вынужден покинуть Родину и уехать во Францию, где ему гарантированы все условия для продолжения важных для него и для науки изысканий. Решение уехать из России далось ему нелегко, он долго сопротивлялся этому, считая предательством отъезд из страны. Его душа полна сомнений в правильности избранного шага.После последней для него в России научной конференции, проходившей в далеком сибирском городе, по дороге в аэропорт, Матвей Терентьевич заезжает в село, где он родился и вырос. Сутки, проведенные им в родном селе, и составляют содержание картины…
Сценарий был написан за 25 лет до того момента, как в 1998 году попал в производство.
В советские времена на главные роли планировались Евгений Евстигнеев, Александр Калягин.
Работа в фильме стала последней для Любови Соколовой, часть эпизодов за нее доиграла дублерша, екатеринбургская актриса Софья Тиунова.

Доп. информация:
Страна: Россия .
Киностудия: Свердловская киностудия.
Автор сценария: Геннадий Бокарев.
Оператор: Борис Шапиро.
Композитор: Вадим Биберган.
Художник: Валерий Кукенков.

Релиз
Рип sharky.

Качество: TVRip
Формат: AVI
Видео: 704x528 (1.33:1), 25 fps, XviD build 50 ~1936 kbps avg, 0.21 bit/pixel
Аудио: 48 kHz, MPEG Layer 3, 2 ch, ~128.00 kbps avg
Отчет MediaInfo
Общее
Полное имя : Na.pol.puti.v.Parizh.2001.XviD.TVRip.fenixclub.avi
Format : AVI
Format/Info : Audio Video Interleave
File size : 1.09 GiB
Duration : 1h 15mn
Overall bit rate : 2 075 Kbps
Writing application : VirtualDubMod 1.5.10.3 | www.virtualdub-fr.org || (build 2550/release)
Writing library : VirtualDubMod build 2550/release
Video
ID : 0
Format : MPEG-4 Visual
Format profile : Advanced Simple@L5
Format settings, BVOP : 1
Format settings, QPel : No
Format settings, GMC : No warppoints
Format settings, Matrix : Default (H.263)
Codec ID : XVID
Codec ID/Hint : XviD
Duration : 1h 15mn
Bit rate : 1 937 Kbps
Width : 704 pixels
Height : 528 pixels
Display aspect ratio : 4:3
Frame rate : 25.000 fps
Color space : YUV
Chroma subsampling : 4:2:0
Bit depth : 8 bits
Scan type : Progressive
Compression mode : Lossy
Bits/(Pixel*Frame) : 0.208
Stream size : 1.02 GiB (93%)
Writing library : XviD 1.2.1 (UTC 2008-12-04)
Audio
ID : 1
Format : MPEG Audio
Format version : Version 1
Format profile : Layer 3
Codec ID : 55
Codec ID/Hint : MP3
Duration : 1h 15mn
Bit rate mode : Constant
Bit rate : 128 Kbps
Channel(s) : 2 channels
Sampling rate : 48.0 KHz
Compression mode : Lossy
Stream size : 68.8 MiB (6%)
Alignment : Aligned on interleaves
Interleave, duration : 40 ms (1.00 video frame)
Interleave, preload duratio : 504 ms
Writing library : L3.99r
Encoding settings : -m s -V 4 -q 2 -lowpass 17 -b 128
Скриншоты
Альтернативный хост
Скачать

Скачать торрент!

Как скачивать? · Что такое торрент? · Рейтинг и ограничения

Сайт не распространяет и не хранит электронные версии произведений, а лишь предоставляет доступ к создаваемому пользователями каталогу ссылок на торрент-файлы, которые содержат только списки хеш-сумм

[Профиль] [ЛС]
Показать сообщения:    
Ответить на тему

Текущее время: Сегодня 10:45

Часовой пояс: GMT + 4



Вы не можете начинать темы
Вы не можете отвечать на сообщения
Вы не можете редактировать свои сообщения
Вы не можете удалять свои сообщения
Вы не можете голосовать в опросах
Вы не можете прикреплять файлы к сообщениям
Вы не можете скачивать файлы