Эхо Войны / An Act of War (Райан М. Кеннеди / Ryan M. Kennedy) [2015, США, Драма, триллер, HDRip] VO (Levelin) + Sub Rus + Original Eng

Ответить на тему
 
Автор Сообщение

user ®

Стаж: 7 лет 7 месяцев

Сообщений: 20008

Пост Пост: #1 от 08-Апр-2015 15:03

[Цитировать]

--Эхо Войны / An Act of War-- Страна: США
Жанр: Драма, триллер
Год выпуска: 2015
Продолжительность: 01:39:12
Перевод: Одноголосый закадровый (Levelin)
Cубтитры: русские
Оригинальная аудиодорожка: английский-Режиссер: Райан М. Кеннеди / Ryan M. Kennedy
В ролях: Расс Руссо, Наташа Алам, Даг Э. Даг, Джозеф Р. Ганнасколи, Роберт Миано, Кайова Гордон, Стэн Карп-Описание: Борясь с бессонницей и посттравматическим стрессом, ветеран войны работает по ночам киномехаником в старом кинотеатре. Пытаясь адаптироваться к гражданской жизни, он обнаруживает себя погрязшим в неизбежной паутине обольщения, наркомании, и насилия.-Перевод: [url=http://***/forum/profile.php?mode=viewprofile&u=21131053]Михаил Васильев[/url]
Озвучивал: [url=http://***/forum/profile.php?mode=viewprofile&u=5494858]Семён Ващенко[/url]-Сэмпл- -Качество видео: HDRip
Формат видео: AVI
Видео: XviD, 720x384, 1.85:1, 23.976 fps, 1 702 Kbps
Аудио 1: AC-3, 48.0 KHz, 192 Kbps, 2 channels, rus (Levelin)
Аудио 2: AC-3, 48.0 KHz, 192 Kbps, 2 channels, eng
Формат субтитров: softsub (SRT)-MediaInfo
Format : AVI
Format/Info : Audio Video Interleave
File size : 1.46 GiB
Duration : 1h 39mn
Overall bit rate : 2 101 Kbps
Writing application : VirtualDubModRus 1.5.10.2 (build 2542/release)
Writing library : VirtualDubMod build 2542/release
Video
ID : 0
Format : MPEG-4 Visual
Format profile : Advanced Simple@L5
Format settings, BVOP : 2
Format settings, QPel : No
Format settings, GMC : No warppoints
Format settings, Matrix : Default (H.263)
Codec ID : XVID
Codec ID/Hint : XviD
Duration : 1h 39mn
Bit rate : 1 702 Kbps
Width : 720 pixels
Height : 384 pixels
Display aspect ratio : 1.85:1
Frame rate : 23.976 fps
Color space : YUV
Chroma subsampling : 4:2:0
Bit depth : 8 bits
Scan type : Progressive
Compression mode : Lossy
Bits/(Pixel*Frame) : 0.257
Stream size : 1.18 GiB (81%)
Writing library : XviD 66
Audio #1
ID : 1
Format : AC-3
Format/Info : Audio Coding 3
Mode extension : CM (complete main)
Format settings, Endianness : Big
Codec ID : 2000
Duration : 1h 39mn
Bit rate mode : Constant
Bit rate : 192 Kbps
Channel(s) : 2 channels
Channel positions : Front: L R
Sampling rate : 48.0 KHz
Bit depth : 16 bits
Compression mode : Lossy
Stream size : 136 MiB (9%)
Alignment : Split accross interleaves
Interleave, duration : 42 ms (1.00 video frame)
Interleave, preload duratio : 500 ms
Audio #2
ID : 2
Format : AC-3
Format/Info : Audio Coding 3
Mode extension : CM (complete main)
Format settings, Endianness : Big
Codec ID : 2000
Duration : 1h 39mn
Bit rate mode : Constant
Bit rate : 192 Kbps
Channel(s) : 2 channels
Channel positions : Front: L R
Sampling rate : 48.0 KHz
Bit depth : 16 bits
Compression mode : Lossy
Stream size : 136 MiB (9%)
Alignment : Split accross interleaves
Interleave, duration : 42 ms (1.00 video frame)
Interleave, preload duratio : 500 ms
Скриншот c названием фильма Скриншоты
Скачать

Скачать торрент!

Как скачивать? · Что такое торрент? · Рейтинг и ограничения

Сайт не распространяет и не хранит электронные версии произведений, а лишь предоставляет доступ к создаваемому пользователями каталогу ссылок на торрент-файлы, которые содержат только списки хеш-сумм

[Профиль] [ЛС]
Показать сообщения:    
Ответить на тему

Текущее время: Сегодня 06:10

Часовой пояс: GMT + 4



Вы не можете начинать темы
Вы не можете отвечать на сообщения
Вы не можете редактировать свои сообщения
Вы не можете удалять свои сообщения
Вы не можете голосовать в опросах
Вы не можете прикреплять файлы к сообщениям
Вы не можете скачивать файлы