Корпорация монстров / Monsters, Inc. (Питер Доктер, Дэвид Силверман, Ли Анкрич / Pete Docter, David Silverman, Lee Unkrich) [2001, фэнтези, комедия, семейный, мультфильм, DVB] Локализованный видеоряд [Widescreen Version]

Ответить на тему
 
Автор Сообщение

user ®

Стаж: 13 лет

Сообщений: 15041

Пост Пост: #1 от 07-Апр-2015 23:30

[Цитировать]

Год выпуска: 2001
Страна: США
Жанр: фэнтези, комедия, семейный, мультфильм
Продолжительность: 01:22:06
Перевод: дубляж
Режиссёр: Пит Доктер, Дэвид Силверман, Ли Анкрич / Pete Docter, David Silverman, Lee Unkrich
Роли озвучивали:
Джон Гудмен (Сергей Паршин), Билли Кристал (Олег Куликович), Мэри Гиббс (Лидия Семёнова), Стив Бушеми (Евгений Дятлов), Джеймс Коберн (Борис Улитин), Дженнифер Тилли (Татьяна Михалевкина), Боб Питерсон (Наталья Данилова), Джон Ратценбергер (Артур Ваха), Фрэнк Оз, Дэниэл Джерсон, Стив Сусскинд, Бонни Хант, Джефф Пиджон, Сэмюэл Лорд Блэк, Джек Эйнджел, Боб Берген, Роджер Бампасс, Джино Конфорти
В данной раздаче представлена версия с локализованным видеорядом от канала Дисней, 2015 год. Также в данной раздаче представлен исправленный дубляж, ранее во всех изданиях он был с браком.
Релиз:
Качество: DVB
Формат: MPEG-TS
Видео: AVC, 720x576 (4:3), 25.000 fps, ~2 293 Kbps
Аудио: MPEG Audio, 48000 Hz, stereo, 192 kbps
Субтитры: отсутствуют
[url=http://***/forum/viewtopic.php?t=4980481] [/url]
Отличия FullScreen от WideScreen Отличия русификации СТС от русификации канала Дисней Подробные технические данные
General
ID : 1 (0x1)
Complete name : I:\ПОЛНОМЕТРАЖНЫЕ МУЛЬТФИЛЬМЫ\ДИСНЕЙ\Корпорация монстров (AVC).ts
Format : MPEG-TS
Format/Info : Advanced Video Codec
File size : 1.51 GiB
Duration : 1h 22mn
Overall bit rate : 2 616 Kbps
Video
ID : 1601 (0x641)
Menu ID : 1 (0x1)
Format : AVC
Format/Info : Advanced Video Codec
Format profile : Main@L3.0
Format settings, CABAC : Yes
Format settings, ReFrames : 4 frames
Codec ID : 27
Duration : 1h 22mn
Bit rate : 2 293 Kbps
Width : 720 pixels
Height : 576 pixels
Display aspect ratio : 4:3
Frame rate : 25.000 fps
Standard : PAL
Color space : YUV
Chroma subsampling : 4:2:0
Bit depth : 8 bits
Scan type : MBAFF
Bits/(Pixel*Frame) : 0.221
Stream size : 1.33 GiB (88%)
Color primaries : BT.470-6 System B, BT.470-6 System G, BT.601-6 625, BT.1358 625, BT.1700 625 PAL, BT.1700 625 SECAM
Transfer characteristics : BT.470-6 System B, BT.470-6 System G
Matrix coefficients : BT.470-6 System B, BT.470-6 System G, BT.601-6 625, BT.1358 625, BT.1700 625 PAL, BT.1700 625 SECAM, IEC 61966-2-4 601
Audio
ID : 1602 (0x642)
Menu ID : 1 (0x1)
Format : MPEG Audio
Format version : Version 1
Format profile : Layer 2
Codec ID : 3
Duration : 1h 22mn
Bit rate mode : Constant
Bit rate : 192 Kbps
Channel(s) : 2 channels
Sampling rate : 48.0 KHz
Compression mode : Lossy
Stream size : 114 MiB (7%)
Language : Russian
Скриншоты
Скачать

Скачать торрент! Корпорация монстров / Monsters, Inc. (Питер Доктер, Дэвид Силверман, Ли Анкрич / Pete Docter, David Silverman, Lee Unkrich) [2001, фэнтези, комедия, семейный, мультфильм, DVB] Локализованный видеоряд [Widescreen Version]

Как скачивать? · Что такое торрент? · Рейтинг и ограничения

Сайт не распространяет и не хранит электронные версии произведений, а лишь предоставляет доступ к создаваемому пользователями каталогу ссылок на торрент-файлы, которые содержат только списки хеш-сумм

[Профиль] [ЛС]
Показать сообщения:    
Ответить на тему

Текущее время: Сегодня 16:22

Часовой пояс: GMT + 4



Вы не можете начинать темы
Вы не можете отвечать на сообщения
Вы не можете редактировать свои сообщения
Вы не можете удалять свои сообщения
Вы не можете голосовать в опросах
Вы не можете прикреплять файлы к сообщениям
Вы не можете скачивать файлы