Мифика: Задание для героев / Mythica: A Quest for Heroes (Энн К. Блэк / Anne K. Black) [2015, США, Фэнтези, HDRip] VO

Ответить на тему
 
Автор Сообщение

user ®

Стаж: 7 лет 7 месяцев

Сообщений: 20008

Пост Пост: #1 от 07-Апр-2015 11:06

[Цитировать]

Мифика: Задание для героев / Mythica: A Quest for Heroes
Страна: США
Жанр: Фэнтези
Год выпуска: 2015
Продолжительность: 01:32:12
Перевод: Одноголосый закадровый
[Перевод: kon2011, Озвучивание: datynet]
Cубтитры: нет
Оригинальная аудиодорожка: нет
Режиссер: Энн К. Блэк / Anne K. Black
В ролях: Мелани Стоун, Адам Джонсон, Джейк Стормоен, Никки Поснер, Кристофер Робин Миллер, Кевин Сорбо, Натали Дивайн, Роберт Джейн, Майкл Флинн, Себастьян Майкл Барр
Описание: Молодая волшебница Марек мечтает о захватывающих приключениях. Отправляясь в путь она встречает жрицу Тилу, которая ищет свою пропавшую сестру. Вместе они отправляются на её поиски.
Сэмпл: https://yadi.sk/i/NFpk7uXJfogbA
Качество видео: HDRip
Формат видео: AVI
Видео: MPEG-4 Visual at 1796 Кбит/сек, 720 x 400 (1.800) at 23.976 fps
Аудио: MPEG Audio at 192 Кбит/сек, 2 канала, 44,1 КГц
MediaInfo
Общее
Полное имя : E:\Rutracker-Razdachi\Mythica_a_quest_for_heroes.2015.L1.HDRip.avi
Формат : AVI
Формат/Информация : Audio Video Interleave
Размер файла : 1,29 Гбайт
Продолжительность : 1 ч. 32 м.
Общий поток : 1998 Кбит/сек
Программа кодирования : VirtualDubMod 1.5.10.2 (build 2540/release)
Библиотека кодирования : VirtualDubMod build 2540/release
Видео
Идентификатор : 0
Формат : MPEG-4 Visual
Профиль формата : Advanced Simple@L5
Параметр BVOP формата : 2
Параметр QPel формата : Нет
Параметр GMC формата : Без точки перехода
Параметр матрицы формата : Default (H.263)
Режим смешивания : Сжатый битовый поток
Идентификатор кодека : XVID
Идентификатор кодека/Подсказка : XviD
Продолжительность : 1 ч. 32 м.
Битрейт : 1796 Кбит/сек
Ширина : 720 пикселей
Высота : 400 пикселей
Соотношение сторон : 16:9
Частота кадров : 23,976 кадра/сек
Цветовое пространство : YUV
Субдискретизация насыщенности : 4:2:0
Битовая глубина : 8 бит
Тип развёртки : Прогрессивная
Метод сжатия : С потерями
Бит/(Пиксели*Кадры) : 0.260
Размер потока : 1,16 Гбайт (90%)
Библиотека кодирования : XviD 66
Аудио
Идентификатор : 1
Формат : MPEG Audio
Версия формата : Version 1
Профиль формата : Layer 3
Идентификатор кодека : 55
Идентификатор кодека/Подсказка : MP3
Продолжительность : 1 ч. 32 м.
Вид битрейта : Постоянный
Битрейт : 192 Кбит/сек
Каналы : 2 канала
Частота : 44,1 КГц
Метод сжатия : С потерями
Размер потока : 127 Мбайт (10%)
Выравнивание : Разделение по промежуткам
Продолжительность промежутка : 42 мс. (1,00 видеокадр)
Время предзагрузки промежутка : 500 мс.
Скриншоты
Скачать

Скачать торрент!

Как скачивать? · Что такое торрент? · Рейтинг и ограничения

Сайт не распространяет и не хранит электронные версии произведений, а лишь предоставляет доступ к создаваемому пользователями каталогу ссылок на торрент-файлы, которые содержат только списки хеш-сумм

[Профиль] [ЛС]
Показать сообщения:    
Ответить на тему

Текущее время: Сегодня 03:58

Часовой пояс: GMT + 4



Вы не можете начинать темы
Вы не можете отвечать на сообщения
Вы не можете редактировать свои сообщения
Вы не можете удалять свои сообщения
Вы не можете голосовать в опросах
Вы не можете прикреплять файлы к сообщениям
Вы не можете скачивать файлы