1944 (Элмо Нюганен / Elmo Nuganen) [2015, Эстония, драма, военный, DVDRip] Orig Est + Sub Rus

Ответить на тему
 
Автор Сообщение

user ®

Стаж: 7 лет 7 месяцев

Сообщений: 20008

Пост Пост: #1 от 07-Апр-2015 11:06

[Цитировать]

1944
Страна: Эстония
Жанр: драма, военный
Год выпуска: 2015
Продолжительность: 01:36:00
Перевод: Субтитры
Cубтитры: русские
Оригинальная аудиодорожка: эстонский (местами русский)
Режиссер: Элмо Нюганен / Elmo Nüganen
В ролях: Кристиан Юкскюла, Каспар Велберг, Майкен Шмидт, Хендрик Калмет, Карл-Андреас Калмет, Прийт Пиус, Мярт Пиус, Хендрик Тоомпере-мл., Гердт Раудсеп, Майт Малмстен, Пеэтер Таммеару, Айн Мяэотс, Райн Симмул, Кристьян Сарв, Иво Ууккиви, Андеро Эрмел, Анне Реэманн, Тыну Оя и др.
Описание: В новом историческом фильме Элмо Нюганена “1944” рассматриваются военные события, происходившие в Эстонии в 1944 году, в период от июльских боёв в Синимяэ до ноября, когда полуостров Сырве был уже завоёван войсками Советской Армии. Война показана глазами участников событий с обеих враждующих сторон – эстонцев, которые воевали и на стороне немецкой армии в 20-й эстонской дивизии Waffen-SS, и в составе 8-го Эстонского стрелкового корпуса Советской Армии. Для жителей Эстонии это была война, в которой каждый делал свой личный выбор. Именно с таким нелёгким выбором сталкиваются главные герои картины - солдаты противоборствующих сторон Карл Таммик и Юри Йыги - а также их сослуживцы, родные, близких и совсем незнакомые люди...
Доп. информация: "1944" - самый высокобюджетный и (наряду с предыдущим фильмом того же Нюганена "Имена в граните" 2002 года) самый кассовый фильм в истории независимой Эстонии.
Картина снята при поддержке Эстонского Института Кино, Министерства обороны, Сил обороны Эстонии и Фонда "Капитала Культуры".
Релиз
Сэмпл: http://multi-up.com/1042406
Качество видео: DVDRip
Формат видео: AVI
Видео: 720x304 (2,35:1), 25 fps, XviD, 1571 Кбит/сек
Аудио: 448 Кбит/сек, 6 каналов, 16 бит, 48 КГц, AC3
Формат субтитров: softsub (SRT)
MediaInfo
Формат : AVI
Формат/Информация : Audio Video Interleave
Размер файла : 1,36 Гбайт
Продолжительность : 1 ч. 36 м.
Общий поток : 2028 Кбит/сек
Библиотека кодирования : VirtualDub build 32842/release
Примечание : i
Видео
Идентификатор : 0
Формат : MPEG-4 Visual
Профиль формата : Advanced Simple@L5
Параметр BVOP формата : 2
Параметр QPel формата : Нет
Параметр GMC формата : Без точки перехода
Параметр матрицы формата : Default (H.263)
Идентификатор кодека : XVID
Идентификатор кодека/Подсказка : XviD
Продолжительность : 1 ч. 36 м.
Битрейт : 1571 Кбит/сек
Ширина : 720 пикселей
Высота : 304 пикселя
Соотношение сторон : 2,35:1
Частота кадров : 25,000 кадров/сек
Цветовое пространство : YUV
Субдискретизация насыщенности : 4:2:0
Битовая глубина : 8 бит
Тип развёртки : Прогрессивная
Метод сжатия : С потерями
Бит/(Пиксели*Кадры) : 0.287
Размер потока : 1,05 Гбайт (77%)
Библиотека кодирования : XviD 64
Аудио
Идентификатор : 1
Формат : AC-3
Формат/Информация : Audio Coding 3
Расширение режима : CM (complete main)
Параметр Endianness формата : Big
Идентификатор кодека : 2000
Продолжительность : 1 ч. 35 м.
Вид битрейта : Постоянный
Битрейт : 448 Кбит/сек
Каналы : 6 каналов
Расположение каналов : Front: L C R, Side: L R, LFE
Частота : 48,0 КГц
Битовая глубина : 16 бит
Метод сжатия : С потерями
Размер потока : 307 Мбайт (22%)
Выравнивание : Разделение по промежуткам
Продолжительность промежутка : 40 мс. (1,00 видеокадр)
Время предзагрузки промежутка : 500 мс.
Скриншот c названием фильма Скриншоты Скриншоты с субтитрами Пример субтитров
142
00:23:28,620 --> 00:23:31,205
Эстонские солдаты!
143
00:23:31,300 --> 00:23:36,084
Фюрер оказал нашему народу
большое доверие.
144
00:23:37,260 --> 00:23:43,167
Он доверил нам самый трудный участок
Танненбергской линии.
145
00:23:44,220 --> 00:23:49,285
И мы, местное правительство Эстонии,
не сидим сложа руки.
146
00:23:49,620 --> 00:23:53,264
В результате многолетнего исследования
147
00:23:53,860 --> 00:23:59,417
мы доказали,
что принадлежим к арийской расе.
148
00:24:02,180 --> 00:24:04,895
Это неоспоримый факт!
149
00:24:05,458 --> 00:24:09,907
Под руководством Великой Германии
нас ждёт светлое будущее
150
00:24:09,940 --> 00:24:13,674
в единой семье народов Европы!
151
00:24:24,968 --> 00:24:27,866
Хайль Гитлер!
- Не скажу.
152
00:24:37,370 --> 00:24:39,843
Почему не скажешь?
153
00:24:47,323 --> 00:24:49,595
Хайль Гитлер!
154
00:24:56,400 --> 00:25:01,682
Я-то думал, нам дадут кресты.
Железные - или деревянные.
155
00:25:01,720 --> 00:25:04,683
А с ней что делать?
156
00:25:05,080 --> 00:25:08,515
Жопу подтирать!
- Слишком грубая бумага.
157
00:25:08,641 --> 00:25:10,924
А ты её разотри!
158
00:25:10,960 --> 00:25:14,101
Постараюсь обменять на курево.
159
00:25:15,660 --> 00:25:18,424
Адольф - полные штаны!
160
00:25:20,308 --> 00:25:24,094
Кяэр, пей!
- Нет, пойду сменю брата.
161
00:25:24,379 --> 00:25:27,216
Гренадёры, давайте выпьем!
162
00:25:32,380 --> 00:25:36,101
Держи. С автографом Гитлера.
Скачать

Скачать торрент!

Как скачивать? · Что такое торрент? · Рейтинг и ограничения

Сайт не распространяет и не хранит электронные версии произведений, а лишь предоставляет доступ к создаваемому пользователями каталогу ссылок на торрент-файлы, которые содержат только списки хеш-сумм

[Профиль] [ЛС]
Показать сообщения:    
Ответить на тему

Текущее время: Сегодня 02:27

Часовой пояс: GMT + 4



Вы не можете начинать темы
Вы не можете отвечать на сообщения
Вы не можете редактировать свои сообщения
Вы не можете удалять свои сообщения
Вы не можете голосовать в опросах
Вы не можете прикреплять файлы к сообщениям
Вы не можете скачивать файлы