ПиКей / PK (Раджкумар Хирани / Rajkumar Hirani) [2014, Индия, Комедия, фэнтези, мелодрама, BDRip-AVC] DVO (den904 & DeadSno) + Sub Rus + Original (Hindi)

Ответить на тему
 
Автор Сообщение

user ®

Стаж: 12 лет

Сообщений: 15092

Пост Пост: #1 от 06-Апр-2015 22:45

[Цитировать]

ПиКей | PK- Страна: Индия
Жанр: Комедия, фэнтези, мелодрама
Год выпуска: 2014
Продолжительность: 02:32:18
Перевод: Honey & Haseena
Перевод: Озвучка (Любительский (двухголосый закадровый) den904 & DeadSno
Cубтитры: русские [на песни]
Оригинальная аудиодорожка: Hindi
Режиссер: Раджкумар Хирани / Rajkumar Hirani
В ролях:
Аамир Кхан | Aamir Khan
Анушка Шарма | Anushka Sharma
Санджай Датт, Боман Ирани, Саурабх Шукла, Сушант Сингх Раджпут, Парикшит Сахни, Амардип Джа, Рима Дебнатх, Диру Дривэди-ОписаниеПиКей, что в переводе означает «пьяный» - прозвище, которое получил инопланетянин, прилетевший на нашу Землю, чтобы её исследовать. На его планете – никто никогда не врёт, но на нашей - дела обстоят иначе. В первый же день, у него крадут пульт управления, который был единственным связующим звеном между ним и его родной планетой. Отчаявшийся в поисках пришелец, взывает к Богу и просит помочь ему вернуться домой. Но так и не получив ответа, он решает, что не был услышан своим Создателем и уже пора самому отправиться к нему. Весьма необычное поведение для землянина замечает телерепортёр Джаггу. Узнав его историю, девушка решается помочь бедолаге, тем более, что за время пребывания на Земле, он не только успел изменить убеждения и взгляды людей на правду, но и нажить врага в лице так называемого «менеджера» Бога – Тапасви-джи…-Сэмпл

IMDb: 8,5/10 from 53 554 users
Качество видео: BDRip-AVC PK(2014)BD 50-NON Retail BluRay 1080p AVC-HD DTS-HDMA-Team Telly Exclusive
Формат видео: MKV
Видео: AVC 2487 Kbps 1152 x 486 (2.370) 24.000 fps
Аудио: AC-3 192 Kbps 2 channels, 48.0 KHz DVO den904 & DeadSno
Аудио 2: AC-3 448 Kbps 6 channels, 48.0 KHz Hindi Отдельно
Формат субтитров: softsub (SRT)
MediaInfo | Log
Log
x264 [info]: frame I:2110 Avg QP:15.78 size: 69935
x264 [info]: frame P:50106 Avg QP:17.26 size: 27592
x264 [info]: frame B:167106 Avg QP:19.75 size: 8205
x264 [info]: consecutive B-frames: 2.1% 2.2% 10.3% 27.7% 21.1% 32.6% 2.8% 0.4% 0.2% 0.1% 0.0% 0.0% 0.0% 0.0% 0.1%
x264 [info]: mb I I16..4: 4.3% 76.7% 19.0%
x264 [info]: mb P I16..4: 0.8% 14.6% 1.7% P16..4: 28.7% 33.7% 13.9% 2.0% 0.2% skip: 4.3%
x264 [info]: mb B I16..4: 0.1% 1.8% 0.2% B16..8: 31.1% 21.6% 3.5% direct: 6.2% skip:35.4% L0:35.4% L1:44.7% BI:19.9%
x264 [info]: 8x8 transform intra:83.8% inter:58.2%
x264 [info]: direct mvs spatial:100.0% temporal:0.0%
x264 [info]: coded y,uvDC,uvAC intra: 88.7% 86.9% 69.9% inter: 23.6% 21.7% 4.3%
x264 [info]: i16 v,h,dc,p: 25% 17% 4% 54%
x264 [info]: i8 v,h,dc,ddl,ddr,vr,hd,vl,hu: 16% 11% 8% 8% 10% 11% 11% 12% 13%
x264 [info]: i4 v,h,dc,ddl,ddr,vr,hd,vl,hu: 19% 12% 8% 7% 12% 12% 11% 9% 10%
x264 [info]: i8c dc,h,v,p: 37% 29% 20% 14%
x264 [info]: Weighted P-Frames: Y:2.9% UV:1.7%
x264 [info]: ref P L0: 49.1% 12.3% 19.1% 4.5% 4.2% 2.6% 2.6% 1.3% 1.3% 1.0% 1.0% 1.0% 0.2% 0.0%
x264 [info]: ref B L0: 85.6% 8.1% 2.4% 1.1% 0.7% 0.6% 0.5% 0.3% 0.3% 0.2% 0.1%
x264 [info]: ref B L1: 96.2% 3.8%
x264 [info]: kb/s:2539.82
x264 [total]: encoded 219322 frames, 10.73 fps, 2539.82 kb/s, duration 5:40:41.59
Format : Matroska
Format version : Version 4 / Version 2
File size : 2.91 GiB
Duration : 2h 32mn
Overall bit rate : 2 734 Kbps
Encoded date : UTC 2015-04-06 09:08:01
Writing application : mkvmerge v6.7.0 ('Back to the Ground') 32bit built on Jan 8 2014 15:03:17
Writing library : libebml v1.3.0 + libmatroska v1.4.1
Video
ID : 1
Format : AVC
Format/Info : Advanced Video Codec
Format profile : High@L4.1
Format settings, CABAC : Yes
Format settings, ReFrames : 12 frames
Codec ID : V_MPEG4/ISO/AVC
Duration : 2h 32mn
Bit rate : 2 487 Kbps
Width : 1 152 pixels
Height : 486 pixels
Display aspect ratio : 2.40:1
Frame rate mode : Constant
Frame rate : 24.000 fps
Color space : YUV
Chroma subsampling : 4:2:0
Bit depth : 8 bits
Scan type : Progressive
Bits/(Pixel*Frame) : 0.185
Stream size : 2.65 GiB (91%)
Title : PK (2014) [***]
Writing library : x264 core 146 r2538kMod 121396c
Encoding settings : cabac=1 / ref=12 / deblock=1:-2:-1 / analyse=0x3:0x133 / me=umh / subme=11 / psy=1 / fade_compensate=0.00 / psy_rd=1.00:0.05 / mixed_ref=1 / me_range=32 / chroma_me=1 / trellis=2 / 8x8dct=1 / cqm=0 / deadzone=21,11 / fast_pskip=0 / chroma_qp_offset=-3 / threads=12 / lookahead_threads=3 / sliced_threads=0 / nr=0 / decimate=1 / interlaced=0 / bluray_compat=0 / constrained_intra=0 / fgo=0 / bframes=14 / b_pyramid=2 / b_adapt=2 / b_bias=0 / direct=3 / weightb=1 / open_gop=0 / weightp=2 / keyint=250 / keyint_min=23 / scenecut=40 / intra_refresh=0 / rc_lookahead=80 / rc=crf / mbtree=0 / crf=17.2000 / qcomp=0.60 / qpmin=0 / qpmax=69 / qpstep=4 / vbv_maxrate=50000 / vbv_bufsize=62500 / crf_max=0.0 / nal_hrd=none / filler=0 / ip_ratio=1.40 / pb_ratio=1.30 / aq=3:0.90
Language : Hindi
Default : Yes
Forced : No
Audio
ID : 2
Format : AC-3
Format/Info : Audio Coding 3
Mode extension : CM (complete main)
Format settings, Endianness : Big
Codec ID : A_AC3
Duration : 2h 32mn
Bit rate mode : Constant
Bit rate : 192 Kbps
Channel(s) : 2 channels
Channel positions : Front: L R
Sampling rate : 48.0 KHz
Bit depth : 16 bits
Compression mode : Lossy
Stream size : 209 MiB (7%)
Title : DVO [DeadSno & den904]
Language : Russian
Default : Yes
Forced : No
Text
ID : 3
Format : UTF-8
Codec ID : S_TEXT/UTF8
Codec ID/Info : UTF-8 Plain Text
Title : Song
Language : Russian
Default : Yes
Forced : No
Menu
00:00:00.000 : en:00:00:00.000
00:05:00.000 : en:00:05:00.000
00:10:00.000 : en:00:10:00.000
00:15:00.000 : en:00:15:00.000
00:20:00.000 : en:00:20:00.000
00:25:00.000 : en:00:25:00.000
00:30:00.000 : en:00:30:00.000
00:35:00.000 : en:00:35:00.000
00:40:00.000 : en:00:40:00.000
00:45:00.000 : en:00:45:00.000
00:50:00.000 : en:00:50:00.000
00:55:00.000 : en:00:55:00.000
01:00:00.000 : en:01:00:00.000
01:05:00.000 : en:01:05:00.000
01:10:00.000 : en:01:10:00.000
01:15:00.000 : en:01:15:00.000
01:20:00.000 : en:01:20:00.000
01:25:00.000 : en:01:25:00.000
01:30:00.000 : en:01:30:00.000
01:35:00.000 : en:01:35:00.000
01:40:00.000 : en:01:40:00.000
01:45:00.000 : en:01:45:00.000
01:50:00.000 : en:01:50:00.000
01:55:00.000 : en:01:55:00.000
02:00:00.000 : en:02:00:00.000
02:05:00.000 : en:02:05:00.000
02:10:00.000 : en:02:10:00.000
02:15:00.000 : en:02:15:00.000
02:20:00.000 : en:02:20:00.000
02:25:00.000 : en:02:25:00.000
02:30:00.000 : en:02:30:00.000
Скриншоты
Скачать

Скачать торрент! ПиКей / PK (Раджкумар Хирани / Rajkumar Hirani) [2014, Индия, Комедия, фэнтези, мелодрама, BDRip-AVC] DVO (den904 & DeadSno) + Sub Rus + Original (Hindi)

Как скачивать? · Что такое торрент? · Рейтинг и ограничения

Сайт не распространяет и не хранит электронные версии произведений, а лишь предоставляет доступ к создаваемому пользователями каталогу ссылок на торрент-файлы, которые содержат только списки хеш-сумм

[Профиль] [ЛС]
Показать сообщения:    
Ответить на тему

Текущее время: Сегодня 14:30

Часовой пояс: GMT + 4



Вы не можете начинать темы
Вы не можете отвечать на сообщения
Вы не можете редактировать свои сообщения
Вы не можете удалять свои сообщения
Вы не можете голосовать в опросах
Вы не можете прикреплять файлы к сообщениям
Вы не можете скачивать файлы