Геракл: Начало легенды / The Legend of Hercules (Ренни Харлин / Renny Harlin) [2014, США, Болгария, боевик, фэнтези, BDRip 720p] Dub (BD RUS) + Ukr Dub + Original Eng + Sub (Rus, Eng)

Ответить на тему
 
Автор Сообщение

user ®

Стаж: 7 лет 7 месяцев

Сообщений: 20008

Пост Пост: #1 от 06-Апр-2015 22:45

[Цитировать]

Геракл: Начало легенды / The Legend of Hercules- Год выпуска: 2014
Страна: США, Болгария
Жанр: боевик, фэнтези
Продолжительность: 01:38:44
Перевод: Профессиональный (полное дублирование)
Оригинальная аудиодорожка: English
Субтитры: Russian, English-Режиссер: Ренни Харлин / Renny Harlin
В ролях: Келлан Латс, Скотт Эдкинс, Лиам МакИнтайр, Гайя Уайсс, Лайам Гэрриган, Роксанна МакКи, Раде Шербеджия, Джонатон Шек, Люк Ньюберри, Кеннет Крэнэм
О фильме: 1200 г. до н.э. Древняя Греция. Прекрасная царица Алкмена попала под чары грозного бога Олимпа - Зевса и родила ему сына Геракла. При рождении ему было предсказано стать величайшим воином, который будет властвовать над народами и принесет мир и процветание своей стране. Но пока Геракл ничего не знает о своем предназначении. Он вырос прекрасным и сильным юношей. Он мечтает о любви принцессы Крита, Гебы, которая обещана в жены его брату. Когда Геракл узнает о своей великой миссии, он должен выбрать: сбежать со своей любовью или исполнить свое предназначение.-SbR!
Релиз:
Формат: MKV
Видео: 1280x534 at 23.976 fps, x264@L4.1, crf, ~5606 kbps avg
Аудио #01: Russian: 48 kHz, DTS, 3/2 (L,C,R,l,r) + LFE ch, ~1509 kbps avg |Дубляж, Blu-ray Rus|
Аудио #02: Ukrainian: 48 kHz/16-bit, DTS, 3/2 (L,C,R,l,r) + LFE ch, ~448 kbps avg |Дубляж|
Аудио #03: English: 48 kHz, DTS, 3/2 (L,C,R,l,r) + LFE ch, ~1509 kbps avg
Семпл-Encode VS Source 23916 kbps VS Blu-ray 3D 15990 kbps
-
mInfo
Формат : Matroska
Версия формата : Version 4 / Version 2
Размер файла : 6,26 Гбайт
Продолжительность : 1 ч. 38 м.
Общий поток : 9077 Кбит/сек
Название фильма : The Legend of Hercules (2014) - Release for HDCLUB by SbR
Дата кодирования : UTC 2015-04-04 10:26:45
Программа кодирования : mkvmerge v7.7.0 ('Six Voices') 64bit built on Feb 28 2015 23:39:33
Библиотека кодирования : libebml v1.3.1 + libmatroska v1.4.2
Attachements : cover.jpg / xlog.txt
Видео
Идентификатор : 1
Формат : AVC
Формат/Информация : Advanced Video Codec
Профиль формата : High@L4.1
Параметр CABAC формата : Да
Параметр ReFrames формата : 12 кадров
Идентификатор кодека : V_MPEG4/ISO/AVC
Продолжительность : 1 ч. 38 м.
Битрейт : 5430 Кбит/сек
Ширина : 1280 пикселей
Высота : 534 пикселя
Соотношение сторон : 2,40:1
Режим частоты кадров : Постоянный
Частота кадров : 23,976 кадра/сек
Цветовое пространство : YUV
Субдискретизация насыщенности : 4:2:0
Битовая глубина : 8 бит
Тип развёртки : Прогрессивная
Бит/(Пиксели*Кадры) : 0.331
Размер потока : 3,75 Гбайт (60%)
Заголовок : Release for HDCLUB
Библиотека кодирования : x264 core 146 r2538kMod 121396c
Настройки программы : cabac=1 / ref=12 / deblock=1:-2:-2 / analyse=0x3:0x133 / me=umh / subme=11 / psy=1 / fade_compensate=0.00 / psy_rd=1.00:0.00 / mixed_ref=1 / me_range=32 / chroma_me=1 / trellis=2 / 8x8dct=1 / cqm=0 / deadzone=21,11 / fast_pskip=1 / chroma_qp_offset=-2 / threads=12 / lookahead_threads=2 / sliced_threads=0 / nr=0 / decimate=1 / interlaced=0 / bluray_compat=0 / constrained_intra=0 / fgo=0 / bframes=8 / b_pyramid=2 / b_adapt=2 / b_bias=0 / direct=1 / weightb=1 / open_gop=0 / weightp=2 / keyint=250 / keyint_min=23 / scenecut=40 / intra_refresh=0 / rc_lookahead=60 / rc=crf / mbtree=0 / crf=15.0000 / qcomp=0.70 / qpmin=0 / qpmax=69 / qpstep=4 / vbv_maxrate=62500 / vbv_bufsize=78125 / crf_max=0.0 / nal_hrd=none / filler=0 / ip_ratio=1.40 / pb_ratio=1.30 / aq=1:0.80
Язык : English
Default : Да
Forced : Нет
Основные цвета : BT.709
Характеристики трансфера : BT.709
Коэффициенты матрицы : BT.709
colour_range : Limited
Аудио #1
Идентификатор : 2
Формат : DTS
Формат/Информация : Digital Theater Systems
Режим : 16
Параметр Endianness формата : Big
Идентификатор кодека : A_DTS
Продолжительность : 1 ч. 38 м.
Вид битрейта : Постоянный
Битрейт : 1509 Кбит/сек
Каналы : 6 каналов
Расположение каналов : Front: L C R, Side: L R, LFE
Частота : 48,0 КГц
Битовая глубина : 16 бит
Метод сжатия : С потерями
Размер потока : 1,04 Гбайт (17%)
Заголовок : Dub
Язык : Russian
Default : Да
Forced : Нет
Аудио #2
Идентификатор : 3
Формат : AC-3
Формат/Информация : Audio Coding 3
Расширение режима : CM (complete main)
Параметр Endianness формата : Big
Идентификатор кодека : A_AC3
Продолжительность : 1 ч. 38 м.
Вид битрейта : Постоянный
Битрейт : 448 Кбит/сек
Каналы : 6 каналов
Расположение каналов : Front: L C R, Side: L R, LFE
Частота : 48,0 КГц
Битовая глубина : 16 бит
Метод сжатия : С потерями
Размер потока : 316 Мбайт (5%)
Заголовок : Dub
Язык : Ukrainian
Default : Нет
Forced : Нет
Аудио #3
Идентификатор : 4
Формат : DTS
Формат/Информация : Digital Theater Systems
Режим : 16
Параметр Endianness формата : Big
Идентификатор кодека : A_DTS
Продолжительность : 1 ч. 38 м.
Вид битрейта : Постоянный
Битрейт : 1509 Кбит/сек
Каналы : 6 каналов
Расположение каналов : Front: L C R, Side: L R, LFE
Частота : 48,0 КГц
Битовая глубина : 24 бит
Метод сжатия : С потерями
Размер потока : 1,04 Гбайт (17%)
Язык : English
Default : Нет
Forced : Нет
Текст #1
Идентификатор : 5
Формат : UTF-8
Идентификатор кодека : S_TEXT/UTF8
Идентификатор кодека/Информация : UTF-8 Plain Text
Язык : Russian
Default : Нет
Forced : Нет
Текст #2
Идентификатор : 6
Формат : UTF-8
Идентификатор кодека : S_TEXT/UTF8
Идентификатор кодека/Информация : UTF-8 Plain Text
Язык : English
Default : Нет
Forced : Нет
Меню
00:00:00.000 : en:Chapter 1
00:04:42.530 : en:Chapter 2
00:09:35.071 : en:Chapter 3
00:14:08.137 : en:Chapter 4
00:19:12.150 : en:Chapter 5
00:23:15.932 : en:Chapter 6
00:27:16.092 : en:Chapter 7
00:35:02.849 : en:Chapter 8
00:39:48.469 : en:Chapter 9
00:44:51.688 : en:Chapter 10
00:52:02.619 : en:Chapter 11
00:56:35.431 : en:Chapter 12
01:00:16.112 : en:Chapter 13
01:04:45.338 : en:Chapter 14
01:07:58.113 : en:Chapter 15
01:11:13.350 : en:Chapter 16
01:16:16.319 : en:Chapter 17
01:20:44.837 : en:Chapter 18
01:23:31.881 : en:Chapter 19
01:27:33.956 : en:Chapter 20
01:29:55.805 : en:Chapter 21

-
Цитата:
Стою на раздаче до появления 5-6 сидов, после - не возвращаюсь.
Просьба к скачавшим как можно дольше не покидать раздачу!
Скачать

Скачать торрент!

Как скачивать? · Что такое торрент? · Рейтинг и ограничения

Сайт не распространяет и не хранит электронные версии произведений, а лишь предоставляет доступ к создаваемому пользователями каталогу ссылок на торрент-файлы, которые содержат только списки хеш-сумм

[Профиль] [ЛС]
Показать сообщения:    
Ответить на тему

Текущее время: Сегодня 02:00

Часовой пояс: GMT + 4



Вы не можете начинать темы
Вы не можете отвечать на сообщения
Вы не можете редактировать свои сообщения
Вы не можете удалять свои сообщения
Вы не можете голосовать в опросах
Вы не можете прикреплять файлы к сообщениям
Вы не можете скачивать файлы