Дейв / Dave (Айвен Райтман / Ivan Reitman) [1993, США, мелодрама, комедия, BDRip 1080p] Dub + MVO (НТВ) + Sub Rus, Eng + Original Eng

Ответить на тему
 
Автор Сообщение

user ®

Стаж: 7 лет 7 месяцев

Сообщений: 20008

Пост Пост: #1 от 06-Апр-2015 22:45

[Цитировать]

Дейв / Dave
Страна: США
Студия: Donner/Shuler-Donner Productions, Northern Lights Entertainment, Warner Bros. Pictures Co., CIS Holl
Жанр: Мелодрама, Комедия
Год выпуска: 1993
Продолжительность: 01:49:54-Перевод: Профессиональный (дублированный)
Перевод 2: Профессиональный (многоголосый закадровый) НТВ
Cубтитры: русские, английские
Оригинальная аудиодорожка: английский-Режиссер: Айвен Райтман / Ivan Reitman
В ролях: Кевин Клайн, Сигурни Уивер, Фрэнк Ланджелла, Кевин Данн, Винг Реймз, Бен Кингсли, Чарльз Гродин, Фэйт Принс, Лора Линни, Бонни Хант-Описание: Во время официальной поездки президента Соединенных Штатов Митчелла хватил удар. Да так не вовремя! Это случилось, когда Митчелл развлекался со своей любовницей. Помощники президента Алан Рид и Боб Алекзендер обратились к Дэйву Ковику, успешно руководившему агентством по найму, заменить президента на время его болезни. Дело в том, что действующий президент и Дэйв похожи, как две капли воды…
Амбициозные помощники решили не сообщать общественности о серьезном недуге президента для того, чтобы претворить в жизнь и узаконить некоторые положения, выгодные лично для них. Так, с помощью Дэйва они думали, что расправились с вице-президентом, «похоронили» билль, гарантирующий рядовым американцам социальные привилегии… Но не тут-то было! Дэйв — порядочный и очень добрый человек. Он быстро разобрался, что к чему…- -Рейтинг MPAA: PG-13
Возраст: 16+-Тип релиза: BDRip 1080p
Контейнер: MKV-Видео: MPEG-4 AVC/H.264, 1920x1080, ~12.5 Mbps, 23.976 fps
Аудио: AC3 2.0, 48 kHz, 192 kbps, 16-bit [Русский дубляж]
Аудио 2: AC3, 2.0, 48 kHz, 192 kbps, 16-bit [многоголосый (НТВ)]
Аудио 3: DTS, 2.0, 48 kHz, 1509 kbps, 24-bit [Английский оригинал]
Формат субтитров: softsub (SRT)
MediaInfo
General
Unique ID                                : 223204117092841063256112861489388642780 (0xA7EB8C9DBE1DFC44849B93C6EE34E1DC)
Complete name                            : D:\Films\Dave\Dave (1993) BDRip [1080p].mkv
Format                                   : Matroska
Format version                           : Version 2
File size                                : 11.0 GiB
Duration                                 : 1h 49mn
Overall bit rate                         : 14.3 Mbps
Movie name                               : =HDTracker= by =WhiteHorse= with =CHD=
Encoded date                             : UTC 2012-10-06 08:52:14
Writing application                      : mkvmerge v4.4.0 ('Die Wiederkehr') сборка от Oct 31 2010 21:52:48
Writing library                          : libebml v1.0.0 + libmatroska v1.0.0
Video
ID                                       : 1
Format                                   : AVC
Format/Info                              : Advanced Video Codec
Format profile                           : High@L4.1
Format settings, CABAC                   : Yes
Format settings, ReFrames                : 5 frames
Codec ID                                 : V_MPEG4/ISO/AVC
Duration                                 : 1h 49mn
Bit rate                                 : 12.5 Mbps
Width                                    : 1 920 pixels
Height                                   : 1 080 pixels
Display aspect ratio                     : 16:9
Frame rate mode                          : Constant
Frame rate                               : 23.976 fps
Color space                              : YUV
Chroma subsampling                       : 4:2:0
Bit depth                                : 8 bits
Scan type                                : Progressive
Bits/(Pixel*Frame)                       : 0.251
Stream size                              : 9.34 GiB (85%)
Title                                    : Видеоряд
Writing library                          : x264 core 125 r2200+677M 3a754e7
Encoding settings                        : cabac=1 / ref=5 / deblock=1:-3:-3 / analyse=0x3:0x113 / me=umh / subme=10 / psy=1 / fade_compensate=0.00 / psy_rd=1.05:0.10 / mixed_ref=1 / me_range=48 / chroma_me=1 / trellis=2 / 8x8dct=1 / cqm=0 / deadzone=21,11 / fast_pskip=0 / chroma_qp_offset=-2 / threads=12 / lookahead_threads=2 / sliced_threads=0 / nr=0 / decimate=1 / interlaced=0 / bluray_compat=0 / constrained_intra=0 / fgo=0 / bframes=6 / b_pyramid=2 / b_adapt=2 / b_bias=0 / direct=3 / weightb=1 / open_gop=0 / weightp=2 / keyint=250 / keyint_min=23 / scenecut=40 / intra_refresh=0 / rc_lookahead=60 / rc=2pass / mbtree=0 / bitrate=12482 / ratetol=2.0 / qcomp=0.70 / qpmin=0 / qpmax=69 / qpstep=4 / cplxblur=20.0 / qblur=0.5 / vbv_maxrate=35000 / vbv_bufsize=30000 / nal_hrd=none / ip_ratio=1.40 / pb_ratio=1.30 / aq=2:1.00
Default                                  : Yes
Forced                                   : No
Color primaries                          : BT.709
Transfer characteristics                 : BT.709
Matrix coefficients                      : BT.709
Color range                              : Limited
Audio #1
ID                                       : 2
Format                                   : AC-3
Format/Info                              : Audio Coding 3
Mode extension                           : CM (complete main)
Format settings, Endianness              : Big
Codec ID                                 : A_AC3
Duration                                 : 1h 49mn
Bit rate mode                            : Constant
Bit rate                                 : 192 Kbps
Channel(s)                               : 2 channels
Channel positions                        : Front: L R
Sampling rate                            : 48.0 KHz
Bit depth                                : 16 bits
Compression mode                         : Lossy
Stream size                              : 151 MiB (1%)
Title                                    : Дублированный (Varus Video)
Language                                 : Russian
Default                                  : Yes
Forced                                   : No
Audio #2
ID                                       : 3
Format                                   : AC-3
Format/Info                              : Audio Coding 3
Mode extension                           : CM (complete main)
Format settings, Endianness              : Big
Codec ID                                 : A_AC3
Duration                                 : 1h 49mn
Bit rate mode                            : Constant
Bit rate                                 : 192 Kbps
Channel(s)                               : 2 channels
Channel positions                        : Front: L R
Sampling rate                            : 48.0 KHz
Bit depth                                : 16 bits
Compression mode                         : Lossy
Stream size                              : 151 MiB (1%)
Title                                    : Многоголосый (НТВ)
Language                                 : Russian
Default                                  : No
Forced                                   : No
Audio #3
ID                                       : 4
Format                                   : DTS
Format/Info                              : Digital Theater Systems
Mode                                     : 16
Format settings, Endianness              : Big
Codec ID                                 : A_DTS
Duration                                 : 1h 49mn
Bit rate mode                            : Constant
Bit rate                                 : 1 509 Kbps
Channel(s)                               : 2 channels
Channel positions                        : Front: L R
Sampling rate                            : 48.0 KHz
Bit depth                                : 24 bits
Compression mode                         : Lossy
Delay relative to video                  : 11ms
Stream size                              : 1.16 GiB (11%)
Title                                    : Английский
Language                                 : English
Default                                  : No
Forced                                   : No
Text #1
ID                                       : 5
Format                                   : UTF-8
Codec ID                                 : S_TEXT/UTF8
Codec ID/Info                            : UTF-8 Plain Text
Title                                    : Русские (Full)
Language                                 : Russian
Default                                  : No
Forced                                   : No
Text #2
ID                                       : 6
Format                                   : UTF-8
Codec ID                                 : S_TEXT/UTF8
Codec ID/Info                            : UTF-8 Plain Text
Title                                    : Английские (SDH)
Language                                 : English
Default                                  : No
Forced                                   : No
Menu
00:00:00.000                             : :Chapter 01
00:03:17.322                             : :Chapter 02
00:05:19.569                             : :Chapter 03
00:07:23.276                             : :Chapter 04
00:08:56.494                             : :Chapter 05
00:15:33.057                             : :Chapter 06
00:19:03.767                             : :Chapter 07
00:25:33.198                             : :Chapter 08
00:33:48.776                             : :Chapter 09
00:36:43.701                             : :Chapter 10
00:40:51.157                             : :Chapter 11
00:43:27.813                             : :Chapter 12
00:48:47.341                             : :Chapter 13
00:52:33.233                             : :Chapter 14
00:55:01.464                             : :Chapter 15
01:01:55.253                             : :Chapter 16
01:06:06.754                             : :Chapter 17
01:12:36.643                             : :Chapter 18
01:16:53.066                             : :Chapter 19
01:22:12.385                             : :Chapter 20
01:24:11.004                             : :Chapter 21
01:26:23.720                             : :Chapter 22
01:32:25.039                             : :Chapter 23
01:38:42.958                             : :Chapter 24
01:41:19.990                             : :Chapter 25
01:43:19.276                             : :Chapter 26
01:45:32.743                             : :Chapter 27
01:49:53.086                             : :Chapter 28
Скриншоты
Скачать

Скачать торрент!

Как скачивать? · Что такое торрент? · Рейтинг и ограничения

Сайт не распространяет и не хранит электронные версии произведений, а лишь предоставляет доступ к создаваемому пользователями каталогу ссылок на торрент-файлы, которые содержат только списки хеш-сумм

[Профиль] [ЛС]
Показать сообщения:    
Ответить на тему

Текущее время: Сегодня 17:50

Часовой пояс: GMT + 4



Вы не можете начинать темы
Вы не можете отвечать на сообщения
Вы не можете редактировать свои сообщения
Вы не можете удалять свои сообщения
Вы не можете голосовать в опросах
Вы не можете прикреплять файлы к сообщениям
Вы не можете скачивать файлы