Седьмой сын / Seventh Son (Сергей Бодров / Sergey Bodrov) [2014, США, Великобритания, Канада, фэнтези, приключения, WEB-DL 720p] Dub (iTunes Russia)

Ответить на тему
 
Автор Сообщение

user ®

Стаж: 7 лет 7 месяцев

Сообщений: 20008

Пост Пост: #1 от 06-Апр-2015 22:45

[Цитировать]

Седьмой сын / Seventh Son
Страна: США, Великобритания, Канада
Жанр: фэнтези, приключения
Год выпуска: 2014
Продолжительность: 01:42:01
Перевод: Профессиональный (дублированный) iTunes Russia
Cубтитры: нет
Оригинальная аудиодорожка: нет
Режиссер: Сергей Бодров / Sergey Bodrov
В ролях: Бен Барнс, Джефф Бриджес, Джулианна Мур, Алисия Викандер, Антье Трауэ, Оливия Уильямс, Джон ДеСантис, Кит Харингтон, Джимон Хонсу, Джерард Планкет.
Описание: Рассказ в фильме пойдет про парня, который, так уж вышло, стал седьмым сыном седьмого сына. А только такой человек может стать ведьмаком. Но этого недостаточно, чтобы именовать себя так – необходимо пройти массу тренировок, а также усердно учиться. Ведь главное оружие ведьмака – это его ум. Хоть в народе их не любят, но кто-то же обязан убивать нечисть, хранить землю от сил зла и делать всю грязную работу? Юный Том Уорд попробует стать тем самым учеником ведьмака.
Сэмпл: http://multi-up.com/1042331
Тип релиза: WEB-DL 720p
Контейнер: MKV
Видео: MPEG4 Video (H264) 1280 x 532p, ~ 3999 kbps, 24 fps, 0.245 bit/pixel
Аудио: AC-3, 6 канала, 48,0 КГц, ~384 kbps

M.I
Общее
Уникальный идентификатор : 240668725742275126079179495828773381648 (0xB50F1C4D8F1BC2459227E4A1364FA610)
Полное имя : D:\Seventh Son\Seventh.Son.2014.720p.WEB-DL.Rus.HDCLUB.mkv
Формат : Matroska
Версия формата : Version 2
Размер файла : 3,19 Гбайт
Продолжительность : 1 ч. 42 м.
Общий поток : 4472 Кбит/сек
Название фильма : Seventh Son (2014) - Release for HDCLUB
Дата кодирования : UTC 2015-04-05 19:56:10
Программа кодирования : mkvmerge v3.4.0 ('Rapunzel') built on May 15 2010 09:38:20
Библиотека кодирования : libebml v0.8.0 + libmatroska v0.9.0
Видео
Идентификатор : 1
Формат : AVC
Формат/Информация : Advanced Video Codec
Профиль формата : Main@L3.1
Параметр CABAC формата : Нет
Параметр ReFrames формата : 2 кадра
Идентификатор кодека : V_MPEG4/ISO/AVC
Продолжительность : 1 ч. 42 м.
Битрейт : 3999 Кбит/сек
Ширина : 1280 пикселей
Высота : 532 пикселя
Соотношение сторон : 2,40:1
Режим частоты кадров : Постоянный
Частота кадров : 23,976 кадра/сек
Цветовое пространство : YUV
Субдискретизация насыщенности : 4:2:0
Битовая глубина : 8 бит
Тип развёртки : Прогрессивная
Бит/(Пиксели*Кадры) : 0.245
Размер потока : 2,85 Гбайт (89%)
Заголовок : Seventh Son (2014) - Release for HDCLUB
Язык : English
Default : Да
Forced : Нет
Основные цвета : BT.709
Характеристики трансфера : BT.709
Коэффициенты матрицы : BT.709
colour_range : Limited
Аудио
Идентификатор : 2
Формат : AC-3
Формат/Информация : Audio Coding 3
Расширение режима : CM (complete main)
Параметр Endianness формата : Big
Идентификатор кодека : A_AC3
Продолжительность : 1 ч. 42 м.
Вид битрейта : Постоянный
Битрейт : 384 Кбит/сек
Каналы : 6 каналов
Расположение каналов : Front: L C R, Side: L R, LFE
Частота : 48,0 КГц
Битовая глубина : 16 бит
Метод сжатия : С потерями
Размер потока : 280 Мбайт (9%)
Заголовок : AC3 5.1 @ 384 kbps - DUB, iTunes
Язык : Russian
Default : Да
Forced : Нет
Меню
00:00:00.000 : en:1
00:04:52.000 : en:2
00:10:30.000 : en:3
00:16:42.000 : en:4
00:22:42.000 : en:5
00:27:42.000 : en:6
00:30:19.000 : en:7
00:36:47.000 : en:8
00:42:39.000 : en:9
00:49:56.000 : en:10
00:54:46.000 : en:11
00:57:50.000 : en:12
01:02:55.000 : en:13
01:06:55.000 : en:14
01:11:31.000 : en:15
01:18:38.000 : en:16
01:22:12.000 : en:17
01:25:34.000 : en:18
01:30:16.000 : en:19
01:33:22.000 : en:20
Скриншоты
Скачать

Скачать торрент!

Как скачивать? · Что такое торрент? · Рейтинг и ограничения

Сайт не распространяет и не хранит электронные версии произведений, а лишь предоставляет доступ к создаваемому пользователями каталогу ссылок на торрент-файлы, которые содержат только списки хеш-сумм

[Профиль] [ЛС]
Показать сообщения:    
Ответить на тему

Текущее время: Сегодня 14:44

Часовой пояс: GMT + 4



Вы не можете начинать темы
Вы не можете отвечать на сообщения
Вы не можете редактировать свои сообщения
Вы не можете удалять свои сообщения
Вы не можете голосовать в опросах
Вы не можете прикреплять файлы к сообщениям
Вы не можете скачивать файлы