Академия смерти / Before the Fall / NaPolA / Napola - Elite für den Führer (Деннис Ганзель / Dennis Gansel) [2004, Германия, драма, военный, BDRip 1080p] MVO (R5) + Original Ger + Sub (Rus, Eng)

Ответить на тему
 
Автор Сообщение

user ®

Стаж: 7 лет 7 месяцев

Сообщений: 20008

Пост Пост: #1 от 05-Апр-2015 21:57

[Цитировать]

Академия смерти / Before the Fall / NaPolA / Napola - Elite für den Führer- Год выпуска: 2004
Страна: Германия
Жанр: драма, военный
Продолжительность: 01:54:34
Перевод: Профессиональный (многоголосый, закадровый) R5
Оригинальная аудиодорожка: German
Субтитры: Russian, English-Режиссер: Деннис Ганзель / Dennis Gansel
В ролях: Макс Римельт, Том Шиллинг, Йонас Егермайр, Леон А. Керстен, Томас Дрехзель, Мартин Горес, Флориан Штеттер, Девид Штрисов, Йоахим Биссмайер, Михаэль Шенк
О фильме: В моих бастионах мы вырастим молодежь, которая заставит весь мир содрогаться от ужаса. Мне нужны жестокие, требующие беспрекословного подчинения, бесстрашные и безжалостные юноши... Мне нужна сильная и красивая молодежь... Так я положу начало новому миру! - Адольф Гитлер.
Для осуществления навязчивой идеи Гитлера были созданы Национально-политические академии - система элитных школ под сокращенным названием «НАПОЛА». Там готовили расу новых господ, будущих гауляйтеров Минска или Лондона. До последнего времени о существовании этих школ в Германии не принято было вспоминать, потому что бывшие выпускники НАПОЛЫ до сих пор занимают высокие посты в политике и бизнесе.
Берлин, 1942 год. Шестнадцатилетний Фридрих получает лестное предложение стать учеником НАПОЛЫ, где элита завтрашнего дня штудирует «Нибелунгов», бегает кроссы, охотится с боевым оружием на русских пленных... Но вскоре первоначальные восторги уступают место сомнениям...-SbR!
Релиз:
Источник: Napola 2004 Blu-ray Nordic 1080p AVC DTS-HD MA
Тип релиза: BDRip 1080p
Контейнер: MKV
Видео: 1916x816 at 24.000 fps, x264@L4.1, crf, ~10870 kbps avg
Аудио #01: Russian: 48 kHz, AC3, 3/2 (L,C,R,l,r) + LFE ch, ~384 kbps avg |Многоголосый закадровый, R5|
Аудио #02: German: 48 kHz, DTS, 3/2 (L,C,R,l,r) + LFE ch, ~1509 kbps avg
Семпл-Source vs Encode
-
mInfo
Формат : Matroska
Версия формата : Version 4 / Version 2
Размер файла : 10,2 Гбайт
Продолжительность : 1 ч. 54 м.
Общий поток : 12,8 Мбит/сек
Название фильма : Napola - Elite für den Führer (2004) - Release for HDCLUB by SbR
Дата кодирования : UTC 2015-04-05 14:54:31
Программа кодирования : mkvmerge v7.0.0 ('Where We Going') 32bit built on Jun 9 2014 15:08:34
Библиотека кодирования : libebml v1.3.0 + libmatroska v1.4.1
Attachements : cover.jpg / xlog.txt
DURATION : 01:54:38.848000000
NUMBER_OF_FRAMES : 644892
NUMBER_OF_BYTES : 1297522904
_STATISTICS_WRITING_APP : mkvmerge v7.0.0 ('Where We Going') 32bit built on Jun 9 2014 15:08:34
_STATISTICS_WRITING_DATE_UTC : 2015-04-05 14:54:31
_STATISTICS_TAGS : BPS DURATION NUMBER_OF_FRAMES NUMBER_OF_BYTES
Видео
Идентификатор : 1
Формат : AVC
Формат/Информация : Advanced Video Codec
Профиль формата : High@L4.1
Параметр CABAC формата : Да
Параметр ReFrames формата : 5 кадров
Идентификатор кодека : V_MPEG4/ISO/AVC
Продолжительность : 1 ч. 54 м.
Битрейт : 10,6 Мбит/сек
Ширина : 1916 пикселей
Высота : 816 пикселей
Соотношение сторон : 2,35:1
Режим частоты кадров : Постоянный
Частота кадров : 24,000 кадра/сек
Цветовое пространство : YUV
Субдискретизация насыщенности : 4:2:0
Битовая глубина : 8 бит
Тип развёртки : Прогрессивная
Бит/(Пиксели*Кадры) : 0.283
Размер потока : 8,50 Гбайт (83%)
Заголовок : Release for HDCLUB
Библиотека кодирования : x264 core 142 r2409+42 04be48a tMod [8-bit@4:2:0 X86_64]
Настройки программы : cabac=1 / ref=5 / deblock=1:-2:-2 / analyse=0x3:0x113 / me=umh / subme=11 / psy=1 / fade_compensate=0.00 / psy_rd=1.00:0.00 / mixed_ref=1 / me_range=48 / chroma_me=1 / trellis=2 / 8x8dct=1 / cqm=0 / deadzone=21,11 / fast_pskip=1 / chroma_qp_offset=-2 / threads=12 / lookahead_threads=3 / sliced_threads=0 / nr=0 / decimate=1 / interlaced=0 / bluray_compat=0 / constrained_intra=0 / fgo=0 / bframes=10 / b_pyramid=2 / b_adapt=2 / b_bias=0 / direct=1 / weightb=1 / open_gop=0 / weightp=2 / keyint=250 / keyint_min=24 / scenecut=40 / intra_refresh=0 / rc_lookahead=60 / rc=crf / mbtree=0 / crf=19.5000 / qcomp=0.70 / qpmin=0:0:0 / qpmax=69:69:69 / qpstep=4 / vbv_maxrate=62500 / vbv_bufsize=78125 / crf_max=0.0 / nal_hrd=none / filler=0 / ip_ratio=1.40 / pb_ratio=1.30 / aq=4:0.80 / aq-sensitivity=11.00 / aq-factor=1.00:1.00:1.00 / aq2=1:0.60 / aq2-sensitivity=9.00 / aq2-factor=1.00:1.00:1.00 / aq3=1:[0.60:0.60]:[0.60:0.60]:[0.60:0.60]:[0.60:0.60] / aq3-sensitivity=10.00 / aq3-factor=[1.00:1.00]:[1.00:1.00]:[1.00:1.00] / aq3-boundary=192:64:24
Язык : German
Default : Да
Forced : Нет
Основные цвета : BT.709
Характеристики трансфера : BT.709
Коэффициенты матрицы : BT.709
colour_range : Limited
Аудио #1
Идентификатор : 2
Формат : AC-3
Формат/Информация : Audio Coding 3
Расширение режима : CM (complete main)
Параметр Endianness формата : Big
Идентификатор кодека : A_AC3
Продолжительность : 1 ч. 54 м.
Вид битрейта : Постоянный
Битрейт : 384 Кбит/сек
Каналы : 6 каналов
Расположение каналов : Front: L C R, Side: L R, LFE
Частота : 48,0 КГц
Битовая глубина : 16 бит
Метод сжатия : С потерями
Размер потока : 315 Мбайт (3%)
Заголовок : MVO, R5
Язык : Russian
Default : Да
Forced : Нет
Аудио #2
Идентификатор : 3
Формат : DTS
Формат/Информация : Digital Theater Systems
Режим : 16
Параметр Endianness формата : Big
Идентификатор кодека : A_DTS
Продолжительность : 1 ч. 54 м.
Вид битрейта : Постоянный
Битрейт : 1509 Кбит/сек
Каналы : 6 каналов
Расположение каналов : Front: L C R, Side: L R, LFE
Частота : 48,0 КГц
Битовая глубина : 16 бит
Метод сжатия : С потерями
Размер потока : 1,21 Гбайт (12%)
Язык : German
Default : Нет
Forced : Нет
Текст #1
Идентификатор : 4
Формат : UTF-8
Идентификатор кодека : S_TEXT/UTF8
Идентификатор кодека/Информация : UTF-8 Plain Text
Язык : Russian
Default : Нет
Forced : Нет
Текст #2
Идентификатор : 5
Формат : UTF-8
Идентификатор кодека : S_TEXT/UTF8
Идентификатор кодека/Информация : UTF-8 Plain Text
Язык : English
Default : Нет
Forced : Нет
Меню
00:00:00.000 : en:Chapter 1
00:05:14.000 : en:Chapter 2
00:12:43.000 : en:Chapter 3
00:18:34.000 : en:Chapter 4
00:25:49.000 : en:Chapter 5
00:33:59.000 : en:Chapter 6
00:45:03.000 : en:Chapter 7
00:51:05.000 : en:Chapter 8
00:57:40.000 : en:Chapter 9
01:07:36.000 : en:Chapter 10
01:23:17.000 : en:Chapter 11
01:29:59.000 : en:Chapter 12
01:36:46.000 : en:Chapter 13
01:40:22.000 : en:Chapter 14
01:47:06.000 : en:Chapter 15
01:51:00.000 : en:Chapter 16

-
Цитата:
Стою на раздаче до появления 5-6 сидов, после - не возвращаюсь.
Просьба к скачавшим как можно дольше не покидать раздачу!
Скачать

Скачать торрент!

Как скачивать? · Что такое торрент? · Рейтинг и ограничения

Сайт не распространяет и не хранит электронные версии произведений, а лишь предоставляет доступ к создаваемому пользователями каталогу ссылок на торрент-файлы, которые содержат только списки хеш-сумм

[Профиль] [ЛС]
Показать сообщения:    
Ответить на тему

Текущее время: Сегодня 12:31

Часовой пояс: GMT + 4



Вы не можете начинать темы
Вы не можете отвечать на сообщения
Вы не можете редактировать свои сообщения
Вы не можете удалять свои сообщения
Вы не можете голосовать в опросах
Вы не можете прикреплять файлы к сообщениям
Вы не можете скачивать файлы