Порочный круг / Dum Maaro Dum (Рохан Сиппи / Rohan Sippy) [2011, Индия, боевик, триллер, драма, криминал, DVDRip] MVO (телеканал "Первый")

Ответить на тему
 
Автор Сообщение

user ®

Стаж: 12 лет

Сообщений: 15092

Пост Пост: #1 от 05-Апр-2015 18:51

[Цитировать]

Порочный круг / Dum Maaro Dum
-Страна: Индия
Жанр: Боевик, триллер, драма, криминал
Год выпуска: 2011
Продолжительность: 02:05:17--Перевод: Профессиональный (многоголосый закадровый) - (телеканал "Первый")
Cубтитры: Есть (песни)--Режиссер: Рохан Сиппи / Rohan Sippy-В ролях: Абхишек Баччан, Бипаша Басу, Дипика Падукон, Адитья Панчоли, Монти Мунфорд, Рана Даггубати, Пратик Баббар, Видья Балан--Описание: Гоа - рай на земле. Но даже в раю всегда найдется парочка ядовитых змей. Удивительно, как случайная встреча в международном аэропорту Гоа может изменить судьбу навсегда... Подруга Лорри едет на учебу в США. Он решает ехать следом за ней, но для этого ему нужно 15 тысяч долларов. Но их у него нет. Его жизнь выходит из-под контроля. Его друг Рикки предлагает ему помочь. За небольшую цену. За его душу.-Внимание: не рекомендуется к просмотру лицам со слабой психикой или особо впечатлительным!-- --Качество видео: DVDRip
Формат видео: AVI-Видео: 704x304 (2.32:1), 23.976 fps, XviD build 50 ~1405 kbps avg, 0.27 bit/pixel
Аудио: 48 kHz, AC3 Dolby Digital, 2/0 (L,R) ch, ~224 kbps
Формат субтитров: hardsub (неотключаемые, вшитые в картинку)-Перeвод песен: Aredhel & Alex White (спасибо!)
Риппер: The_Mammy (спасибо!)
Запись и сведение звука: soso4eg
Видеоряд позаимствован из [url=http://***/forum/viewtopic.php?t=3616605]этой[/url] раздачи (большое спасибо) =)--Сэмпл / Sample-- -
-
Скриншот с названием:
-
Скриншоты:
-
MI
General
Complete name : K:\[Релизы]\Porochnyi.Krug.2011.DVDRip.XviD.BwTorrents-soso4eg.avi
Format : AVI
Format/Info : Audio Video Interleave
File size : 1.43 GiB
Duration : 2h 5mn
Overall bit rate : 1 639 Kbps
Movie name : Porochnyi.Krug.2011.DVDRip.XviD.BwTorrents.1.43.GiB
Writing application : VirtualDubMod 1.6.0.0 SURROUND (build 2560/release)
Writing library : VirtualDubMod build 2560/release
Video
ID : 0
Format : MPEG-4 Visual
Format profile : Advanced Simple@L5
Format settings, BVOP : 2
Format settings, QPel : No
Format settings, GMC : No warppoints
Format settings, Matrix : Default (MPEG)
Codec ID : XVID
Codec ID/Hint : XviD
Duration : 2h 5mn
Bit rate : 1 406 Kbps
Width : 704 pixels
Height : 304 pixels
Display aspect ratio : 2.35:1
Frame rate : 23.976 fps
Color space : YUV
Chroma subsampling : 4:2:0
Bit depth : 8 bits
Scan type : Progressive
Compression mode : Lossy
Bits/(Pixel*Frame) : 0.274
Stream size : 1.23 GiB (86%)
Writing library : XviD 1.2.1 (UTC 2008-12-04)
Audio
ID : 1
Format : AC-3
Format/Info : Audio Coding 3
Mode extension : CM (complete main)
Format settings, Endianness : Big
Codec ID : 2000
Duration : 2h 5mn
Bit rate mode : Constant
Bit rate : 224 Kbps
Channel(s) : 2 channels
Channel positions : Front: L R
Sampling rate : 48.0 KHz
Bit depth : 16 bits
Compression mode : Lossy
Stream size : 201 MiB (14%)
Alignment : Split accross interleaves
Interleave, duration : 42 ms (1.00 video frame)
Interleave, preload duratio : 500 ms

-
-
Скачать

Скачать торрент! Порочный круг / Dum Maaro Dum (Рохан Сиппи / Rohan Sippy) [2011, Индия, боевик, триллер, драма, криминал, DVDRip] MVO (телеканал "Первый")

Как скачивать? · Что такое торрент? · Рейтинг и ограничения

Сайт не распространяет и не хранит электронные версии произведений, а лишь предоставляет доступ к создаваемому пользователями каталогу ссылок на торрент-файлы, которые содержат только списки хеш-сумм

[Профиль] [ЛС]
Показать сообщения:    
Ответить на тему

Текущее время: Сегодня 15:46

Часовой пояс: GMT + 4



Вы не можете начинать темы
Вы не можете отвечать на сообщения
Вы не можете редактировать свои сообщения
Вы не можете удалять свои сообщения
Вы не можете голосовать в опросах
Вы не можете прикреплять файлы к сообщениям
Вы не можете скачивать файлы