Парадиз (Рудольф Фрунтов) [2006, Россия, боевик, HDTV 1080i] + Original Rus

Ответить на тему
 
Автор Сообщение

user ®

Стаж: 7 лет 7 месяцев

Сообщений: 20008

Пост Пост: #1 от 05-Апр-2015 18:51

[Цитировать]

Парадиз
Страна: Россия
Студия: Интра Фильм
Жанр: боевик
Год выпуска: 2006
Продолжительность: 01:32:14
Перевод: Не требуется
Cубтитры: нет
Оригинальная аудиодорожка: русский
Режиссер: Рудольф Фрунтов
В ролях: Игорь Лифанов, Юрий Стосков, Елена Захарова, Сергей Чудаков, Евдокия Вишнякова
Описание:
Его зовут Николай Звягин. Он талантливый гитарист-самоучка, работает в милиции. Жизнь героя круто меняется после семейной драмы, связанной с изменой жены. Оказавшись в тюрьме, Звягин знакомится с влиятельным и уважаемым на зоне человеком, к которому идет работать в службу охраны после того, как честно отсидел свой срок. Как-то вечером в баре он знакомится с красивой девушкой.....

Сэмпл: http://multi-up.com/1042008
Тип релиза: HDTV 1080i
Контейнер: TS
Видео: AVC, 1920x1080, (16:9), 25 fps, 7.4 Mbps
Аудио: Русский, MP2, 48 kHz, 2 ch, 320 kbps
MediaInfo
General
ID : 1 (0x1)
Complete name : C:\Парадиз_2006_HDTV 1080i_RU.ts
Format : MPEG-TS
File size : 5.23 GiB
Duration : 1h 32mn
Overall bit rate mode : Variable
Overall bit rate : 8 073 Kbps
Video
ID : 1681 (0x691)
Menu ID : 1680 (0x690)
Format : AVC
Format/Info : Advanced Video Codec
Format profile : Main@L4.0
Format settings, CABAC : Yes
Format settings, ReFrames : 4 frames
Codec ID : 27
Duration : 1h 32mn
Bit rate : 7 351 Kbps
Width : 1 920 pixels
Height : 1 080 pixels
Display aspect ratio : 16:9
Frame rate : 25.000 fps
Color space : YUV
Chroma subsampling : 4:2:0
Bit depth : 8 bits
Scan type : Interlaced
Scan order : Top Field First
Bits/(Pixel*Frame) : 0.142
Stream size : 4.76 GiB (91%)
Color primaries : BT.709
Transfer characteristics : BT.709
Matrix coefficients : BT.709
Color range : Limited
Audio
ID : 1682 (0x692)
Menu ID : 1680 (0x690)
Format : MPEG Audio
Format version : Version 1
Format profile : Layer 2
Codec ID : 3
Duration : 1h 32mn
Bit rate mode : Constant
Bit rate : 320 Kbps
Channel(s) : 2 channels
Sampling rate : 48.0 KHz
Compression mode : Lossy
Stream size : 212 MiB (4%)
Language : Russian
Скриншоты
Скачать

Скачать торрент!

Как скачивать? · Что такое торрент? · Рейтинг и ограничения

Сайт не распространяет и не хранит электронные версии произведений, а лишь предоставляет доступ к создаваемому пользователями каталогу ссылок на торрент-файлы, которые содержат только списки хеш-сумм

[Профиль] [ЛС]
Показать сообщения:    
Ответить на тему

Текущее время: Сегодня 00:19

Часовой пояс: GMT + 4



Вы не можете начинать темы
Вы не можете отвечать на сообщения
Вы не можете редактировать свои сообщения
Вы не можете удалять свои сообщения
Вы не можете голосовать в опросах
Вы не можете прикреплять файлы к сообщениям
Вы не можете скачивать файлы