Призрак и Тьма / The Ghost and the Darkness (Стивен Хопкинс / Stephen Hopkins) [1996, США, ужасы, боевик, триллер, драма, приключения, WEB-DL 720p] MVO (Гемини Фильм) + 2x DVO (Лазер Видео, ОРТ) + AVO (Горчаков) + Original Eng + Sub Rus, Eng

Ответить на тему
 
Автор Сообщение

user ®

Стаж: 7 лет 7 месяцев

Сообщений: 20008

Пост Пост: #1 от 05-Апр-2015 15:45

[Цитировать]

Призрак и Тьма / The Ghost and the Darkness- Год выпуска: 1996
Страна: США
Жанр: ужасы, боевик, триллер, драма, приключения
Продолжительность: 01:49:53
Перевод: Профессиональный (многоголосый, закадровый) Гемини Фильм
+ Профессиональный (двухголосый, закадровый) Лазер Видео
+ Профессиональный (двухголосый, закадровый) ОРТ
+ Авторский одноголосый В.Горчаков
Оригинальная звуковая дорожка: English
Субтитры: Russian (x2), English-Режиссер: Стивен Хопкинс / Stephen Hopkins
В ролях: Майкл Дуглас, Вэл Килмер, Том Уилкинсон, Джон Кахи, Бернард Хилл, Брайан МакКарди, Эмили Мортимер, Ом Пури, Генри Селе, Курт Эгельхоф
О фильме: 1898 год. Лондон. Молодой строитель полковник Джон Паттерсон получает срочное задание построить мост через реку в африканской провинции Цаво. Всю жизнь мечтавший о путешествии в Африку, Паттерсон, оставив беременную жену, спешит к месту работ. На месте его ожидает целая армия рабочих.
Несмотря на разницу вероисповеданий, всех их объединяет один общий страх перед объявившимися в этих краях львами-людоедами. В первый же день пребывания Паттерсона на африканской земле лев покалечил одного из индусов. Устроив засаду, Джон застрелил льва к огромной радости всего рабочего люда. Строительство продвигалось успешно до того момента, пока вдруг снова не стали погибать рабочие.-Релиз:
Источник: iTunes
Формат: MKV
Видео: 1280x606 at 23.976 fps, MPEG-4 AVC, ~4000 kbps avg
Аудио #01: Russian: 48 kHz, AC3, 3/2 (L,C,R,l,r) + LFE ch, ~448.00 kbps avg |Многоголосый закадровый, Гемини Фильм|
Аудио #02: Russian: 48 kHz, AC3, 3/2 (L,C,R,l,r) + LFE ch, ~448.00 kbps avg |Двухголосый закадровый, Лазер Видео|
Аудио #03: Russian: 48 kHz, AC3, 2/0 (L,R) ch, ~192.00 kbps avg |Двухголосый закадровый, ОРТ|
Аудио #04: Russian: 48 kHz, AC3, 2/0 (L,R) ch, ~192.00 kbps avg |Одноголосый закадровый, В.Горчаков|
Аудио #05: English: 48 kHz, AC3, 3/2 (L,C,R,l,r) + LFE ch, ~384.00 kbps avg
Семпл-

Скриншоты
-
mInfo
Полное имя : E:\The.Ghost.and.the.Darkness.1996.720p.WEB-DL.4xRus.1xEng.HDCLUB.mkv
Формат : Matroska
Версия формата : Version 4 / Version 2
Размер файла : 4,54 Гбайт
Продолжительность : 1 ч. 49 м.
Общий поток : 5918 Кбит/сек
Название фильма : The.Ghost.and.the.Darkness.1996.720p.720p.WEB-DL.4xRus.Ukr.1xEng.HDCLUB
Дата кодирования : UTC 2015-04-01 19:02:46
Программа кодирования : mkvmerge v6.8.0 ('Theme for Great Cities') 64bit built on Mar 2 2014 21:34:26
Библиотека кодирования : libebml v1.3.0 + libmatroska v1.4.1
Видео
Идентификатор : 1
Формат : AVC
Формат/Информация : Advanced Video Codec
Профиль формата : High@L3.1
Параметр CABAC формата : Нет
Параметр ReFrames формата : 2 кадра
Идентификатор кодека : V_MPEG4/ISO/AVC
Продолжительность : 1 ч. 49 м.
Битрейт : 4136 Кбит/сек
Ширина : 1280 пикселей
Высота : 606 пикселей
Соотношение сторон : 2,112
Режим частоты кадров : Постоянный
Частота кадров : 23,976 кадра/сек
Цветовое пространство : YUV
Субдискретизация насыщенности : 4:2:0
Битовая глубина : 8 бит
Тип развёртки : Прогрессивная
Бит/(Пиксели*Кадры) : 0.222
Размер потока : 3,18 Гбайт (70%)
Заголовок : The.Ghost.and.the.Darkness.1996.720p.720p.WEB-DL.4xRus.Ukr.1xEng.HDCLUB
Язык : English
Default : Да
Forced : Нет
Основные цвета : BT.709
Характеристики трансфера : BT.709
Коэффициенты матрицы : BT.709
colour_range : Limited
Аудио #1
Идентификатор : 2
Формат : AC-3
Формат/Информация : Audio Coding 3
Расширение режима : CM (complete main)
Параметр Endianness формата : Big
Идентификатор кодека : A_AC3
Продолжительность : 1 ч. 49 м.
Вид битрейта : Постоянный
Битрейт : 448 Кбит/сек
Каналы : 6 каналов
Расположение каналов : Front: L C R, Side: L R, LFE
Частота : 48,0 КГц
Битовая глубина : 16 бит
Метод сжатия : С потерями
Размер потока : 352 Мбайт (8%)
Заголовок : AC3 5.1 - Gimeni
Язык : Russian
Default : Да
Forced : Нет
Аудио #2
Идентификатор : 3
Формат : AC-3
Формат/Информация : Audio Coding 3
Расширение режима : CM (complete main)
Параметр Endianness формата : Big
Идентификатор кодека : A_AC3
Продолжительность : 1 ч. 49 м.
Вид битрейта : Постоянный
Битрейт : 448 Кбит/сек
Каналы : 6 каналов
Расположение каналов : Front: L C R, Side: L R, LFE
Частота : 48,0 КГц
Битовая глубина : 16 бит
Метод сжатия : С потерями
Размер потока : 352 Мбайт (8%)
Заголовок : AC3 5.1 - Laser Video
Язык : Russian
Default : Нет
Forced : Нет
Аудио #3
Идентификатор : 4
Формат : AC-3
Формат/Информация : Audio Coding 3
Расширение режима : CM (complete main)
Параметр Endianness формата : Big
Идентификатор кодека : A_AC3
Продолжительность : 1 ч. 49 м.
Вид битрейта : Постоянный
Битрейт : 192 Кбит/сек
Каналы : 2 канала
Расположение каналов : Front: L R
Частота : 48,0 КГц
Битовая глубина : 16 бит
Метод сжатия : С потерями
Размер потока : 151 Мбайт (3%)
Заголовок : AC3 5.1 - ORT
Язык : Russian
Default : Нет
Forced : Нет
Аудио #4
Идентификатор : 5
Формат : AC-3
Формат/Информация : Audio Coding 3
Расширение режима : CM (complete main)
Параметр Endianness формата : Big
Идентификатор кодека : A_AC3
Продолжительность : 1 ч. 49 м.
Вид битрейта : Постоянный
Битрейт : 192 Кбит/сек
Каналы : 2 канала
Расположение каналов : Front: L R
Частота : 48,0 КГц
Битовая глубина : 16 бит
Метод сжатия : С потерями
Размер потока : 151 Мбайт (3%)
Заголовок : AC3 5.1 - Gorchakov
Язык : Russian
Default : Нет
Forced : Нет
Аудио #5
Идентификатор : 6
Формат : AC-3
Формат/Информация : Audio Coding 3
Расширение режима : CM (complete main)
Параметр Endianness формата : Big
Идентификатор кодека : A_AC3
Продолжительность : 1 ч. 49 м.
Вид битрейта : Постоянный
Битрейт : 384 Кбит/сек
Каналы : 6 каналов
Расположение каналов : Front: L C R, Side: L R, LFE
Частота : 48,0 КГц
Битовая глубина : 16 бит
Метод сжатия : С потерями
Размер потока : 302 Мбайт (6%)
Заголовок : English
Язык : English
Default : Нет
Forced : Нет
Текст #1
Идентификатор : 7
Формат : UTF-8
Идентификатор кодека : S_TEXT/UTF8
Идентификатор кодека/Информация : UTF-8 Plain Text
Заголовок : Russian v1
Язык : Russian
Default : Нет
Forced : Нет
Текст #2
Идентификатор : 8
Формат : UTF-8
Идентификатор кодека : S_TEXT/UTF8
Идентификатор кодека/Информация : UTF-8 Plain Text
Заголовок : Russian v2
Язык : Russian
Default : Нет
Forced : Нет
Текст #3
Идентификатор : 9
Формат : UTF-8
Идентификатор кодека : S_TEXT/UTF8
Идентификатор кодека/Информация : UTF-8 Plain Text
Заголовок : English
Язык : English
Default : Нет
Forced : Нет
Меню
00:00:00.000 : en:Train To Mombassa
00:06:08.000 : en:Welcome To Tsavo
00:12:48.000 : en:The Nights Are Safe Again
00:17:24.000 : en:I, too, have killed a lion.
00:22:10.000 : en:No Reason For Fear
00:29:51.000 : en:The Ghost And The Darkness
00:35:43.000 : en:The Contraption
00:44:40.000 : en:The Devil has Come
00:50:50.000 : en:A Time For Bravery
00:55:38.000 : en:The Thicket
01:03:21.000 : en:They
01:14:10.000 : en:The Lair
01:23:39.000 : en:Human Bait
01:31:26.000 : en:Sort It Out
01:39:24.000 : en:The Lion Killer

-
Цитата:
Стою на раздаче до появления 5-6 сидов, после - не возвращаюсь.
Просьба к скачавшим как можно дольше не покидать раздачу!
Скачать

Скачать торрент!

Как скачивать? · Что такое торрент? · Рейтинг и ограничения

Сайт не распространяет и не хранит электронные версии произведений, а лишь предоставляет доступ к создаваемому пользователями каталогу ссылок на торрент-файлы, которые содержат только списки хеш-сумм

[Профиль] [ЛС]
Показать сообщения:    
Ответить на тему

Текущее время: Сегодня 02:15

Часовой пояс: GMT + 4



Вы не можете начинать темы
Вы не можете отвечать на сообщения
Вы не можете редактировать свои сообщения
Вы не можете удалять свои сообщения
Вы не можете голосовать в опросах
Вы не можете прикреплять файлы к сообщениям
Вы не можете скачивать файлы