Джордж из джунглей 2 / George of the Jungle 2 (Дэвид Гроссман / David Grossman) [2003, США, Австралия, комедия, приключения, семейный, WEB-DL 720p] MVO + DVO (П.Гланц и И.Королева) + Ukr + Original Eng + Sub (Rus, Eng)

Ответить на тему
 
Автор Сообщение

user ®

Стаж: 7 лет 7 месяцев

Сообщений: 20008

Пост Пост: #1 от 05-Апр-2015 15:45

[Цитировать]

Джордж из джунглей 2 / George of the Jungle 2- Год выпуска: 2003
Страна: США, Австралия
Жанр: комедия, приключения, семейный
Продолжительность: 01:27:00
Перевод: Профессиональный (многоголосый, закадровый)
+ Профессиональный (двухголосый, закадровый) П.Гланц и И.Королева
Оригинальная звуковая дорожка: English
Субтитры: Russian, English-Режиссер: Дэвид Гроссман / David Grossman
В ролях: Кристофер Шоуэрман, Джули Бенц, Энгус Т. Джонс, Томас Хейден Чёрч, Кристина Пиклз, Джон Клиз, Майкл Кларк Дункан, Джон Кассир, Кевин Гротерт, Кит Скотт
О фильме: Кто живет в диком африканском лесу, с воплем носится на лиане и водит дружбу со зверями? Тарзан? Не угадали! Маугли? Мимо! Это же старина Джордж, Король джунглей! Он по-прежнему часто врезается на лиане в деревья и проигрывает в битве интеллектов друзьям-гориллам. Но сейчас придется Джорджу покинуть любимую чащобу, чтобы разом переделать уйму дел: выручить друга, говорящую гориллу Эйпа, умудрившегося наделать долгов в казино Лас-Вегаса, отстоять жену и сына у пытающейся вернуть их к цивилизации тещи и заодно трон Короля джунглей, на который пытается наложить лапу один предприимчивый лев!-Релиз:
Источник: iTunes
Тип релиза: WEB-DL 720p
Контейнер: MKV
Видео: 1280x718 at 23.976 fps, MPEG-4 AVC, ~4000 kbps avg
Аудио #01: Russian: 48 kHz, AC3, 3/2 (L,C,R,l,r) + LFE ch, ~448.00 kbps avg |Многоголосый закадровый|
Аудио #02: Russian: 48 kHz, AC3, 3/2 (L,C,R,l,r) + LFE ch, ~448.00 kbps avg |Двухголосый закадровый, П.Гланц и И.Королева|
Аудио #03: Ukrainian: 48 kHz, AC3, 2/0 (L,R) ch, ~192.00 kbps avg |Многоголосый закадровый, 1+1|
Аудио #04: English: 48 kHz, AC3, 3/2 (L,C,R,l,r) + LFE ch, ~384.00 kbps avg
Семпл-

Скриншоты
-
mInfo
Формат : Matroska
Версия формата : Version 4 / Version 2
Размер файла : 3,42 Гбайт
Продолжительность : 1 ч. 27 м.
Общий поток : 5621 Кбит/сек
Название фильма : GEORGE OF THE JUNGLE 2 HDCLUB
Дата кодирования : UTC 2015-04-04 03:32:09
Программа кодирования : mkvmerge v7.0.0 ('Where We Going') 32bit built on Jun 9 2014 15:08:34
Библиотека кодирования : libebml v1.3.0 + libmatroska v1.4.1
DURATION : 01:26:49.436000000
NUMBER_OF_FRAMES : 2167
NUMBER_OF_BYTES : 82204
_STATISTICS_WRITING_APP : mkvmerge v7.0.0 ('Where We Going') 32bit built on Jun 9 2014 15:08:34
_STATISTICS_WRITING_DATE_UTC : 2015-04-04 03:32:09
_STATISTICS_TAGS : BPS DURATION NUMBER_OF_FRAMES NUMBER_OF_BYTES
Видео
Идентификатор : 1
Формат : AVC
Формат/Информация : Advanced Video Codec
Профиль формата : High@L3.1
Параметр CABAC формата : Нет
Параметр ReFrames формата : 2 кадра
Параметр GOP формата : N=1
Идентификатор кодека : V_MPEG4/ISO/AVC
Продолжительность : 1 ч. 27 м.
Битрейт : 3974 Кбит/сек
Ширина : 1280 пикселей
Высота : 718 пикселей
Соотношение сторон : 16:9
Режим частоты кадров : Постоянный
Частота кадров : 23,976 кадра/сек
Цветовое пространство : YUV
Субдискретизация насыщенности : 4:2:0
Битовая глубина : 8 бит
Тип развёртки : Прогрессивная
Бит/(Пиксели*Кадры) : 0.180
Размер потока : 2,41 Гбайт (71%)
Заголовок : GEORGE OF THE JUNGLE 2 HDCLUB
Язык : English
Default : Да
Forced : Нет
Основные цвета : BT.709
Характеристики трансфера : BT.709
Коэффициенты матрицы : BT.709
colour_range : Limited
Аудио #1
Идентификатор : 2
Формат : AC-3
Формат/Информация : Audio Coding 3
Расширение режима : CM (complete main)
Параметр Endianness формата : Big
Идентификатор кодека : A_AC3
Продолжительность : 1 ч. 27 м.
Вид битрейта : Постоянный
Битрейт : 448 Кбит/сек
Каналы : 6 каналов
Расположение каналов : Front: L C R, Side: L R, LFE
Частота : 48,0 КГц
Битовая глубина : 16 бит
Метод сжатия : С потерями
Размер потока : 279 Мбайт (8%)
Заголовок : AC3 5.1 - Многоголосый, закадровый
Язык : Russian
Default : Да
Forced : Нет
Аудио #2
Идентификатор : 3
Формат : AC-3
Формат/Информация : Audio Coding 3
Расширение режима : CM (complete main)
Параметр Endianness формата : Big
Идентификатор кодека : A_AC3
Продолжительность : 1 ч. 27 м.
Вид битрейта : Постоянный
Битрейт : 448 Кбит/сек
Каналы : 6 каналов
Расположение каналов : Front: L C R, Side: L R, LFE
Частота : 48,0 КГц
Битовая глубина : 16 бит
Метод сжатия : С потерями
Размер потока : 279 Мбайт (8%)
Заголовок : AC3 5.1 - Петр Гланц и Инна Королева
Язык : Russian
Default : Нет
Forced : Нет
Аудио #3
Идентификатор : 4
Формат : AC-3
Формат/Информация : Audio Coding 3
Расширение режима : CM (complete main)
Параметр Endianness формата : Big
Идентификатор кодека : A_AC3
Продолжительность : 1 ч. 27 м.
Вид битрейта : Постоянный
Битрейт : 192 Кбит/сек
Каналы : 2 канала
Расположение каналов : Front: L R
Частота : 48,0 КГц
Битовая глубина : 16 бит
Метод сжатия : С потерями
Размер потока : 119 Мбайт (3%)
Заголовок : AC3 2.0 - 1+1
Язык : Ukrainian
Default : Нет
Forced : Нет
Аудио #4
Идентификатор : 5
Формат : AC-3
Формат/Информация : Audio Coding 3
Расширение режима : CM (complete main)
Параметр Endianness формата : Big
Идентификатор кодека : A_AC3
Продолжительность : 1 ч. 27 м.
Вид битрейта : Постоянный
Битрейт : 448 Кбит/сек
Каналы : 6 каналов
Расположение каналов : Front: L C R, Side: L R, LFE
Частота : 48,0 КГц
Битовая глубина : 16 бит
Метод сжатия : С потерями
Размер потока : 279 Мбайт (8%)
Язык : English
Default : Нет
Forced : Нет
Текст #1
Идентификатор : 6
Формат : UTF-8
Идентификатор кодека : S_TEXT/UTF8
Идентификатор кодека/Информация : UTF-8 Plain Text
Язык : Russian
Default : Нет
Forced : Нет
Текст #2
Идентификатор : 7
Формат : UTF-8
Идентификатор кодека : S_TEXT/UTF8
Идентификатор кодека/Информация : UTF-8 Plain Text
Язык : English
Default : Нет
Forced : Нет
Меню
00:00:00.000 : en:Chapter 1
00:06:49.000 : en:Chapter 2
00:14:06.000 : en:Chapter 3
00:21:31.000 : en:Chapter 4
00:27:03.000 : en:Chapter 5
00:34:58.000 : en:Chapter 6
00:41:36.000 : en:Chapter 7
00:48:56.000 : en:Chapter 8
00:53:22.000 : en:Chapter 9
00:57:24.000 : en:Chapter 10
01:05:45.000 : en:Chapter 11
01:18:21.000 : en:Chapter 12

-
Цитата:
* Сохранены оригинальные главы.
* Исходный WEB-DL куплен apple_monster, большое ему спасибо.

-
Цитата:
Стою на раздаче до появления 5-6 сидов, после - не возвращаюсь.
Просьба к скачавшим как можно дольше не покидать раздачу!
Скачать

Скачать торрент!

Как скачивать? · Что такое торрент? · Рейтинг и ограничения

Сайт не распространяет и не хранит электронные версии произведений, а лишь предоставляет доступ к создаваемому пользователями каталогу ссылок на торрент-файлы, которые содержат только списки хеш-сумм

[Профиль] [ЛС]
Показать сообщения:    
Ответить на тему

Текущее время: Сегодня 15:32

Часовой пояс: GMT + 4



Вы не можете начинать темы
Вы не можете отвечать на сообщения
Вы не можете редактировать свои сообщения
Вы не можете удалять свои сообщения
Вы не можете голосовать в опросах
Вы не можете прикреплять файлы к сообщениям
Вы не можете скачивать файлы