Пепел / Raakh (Адитья Бхаттачария / Aditya Bhattacharya) [1989, Индия, Драма, криминал, боевик, DVDRip] DVO + Original

Ответить на тему
 
Автор Сообщение

user ®

Стаж: 13 лет

Сообщений: 15069

Пост Пост: #1 от 05-Апр-2015 12:39

[Цитировать]

Пепел / Raakh Страна: Индия
Жанр: Драма, криминал, боевик
Год выпуска: 1989
Продолжительность: 02:04:47
Перевод: Любительский (двухголосый закадровый)
Cубтитры: нет
Оригинальная аудиодорожка: хинди--Режиссер: Адитья Бхаттачария / Aditya Bhattacharya--В ролях: Аамир Кхан, Суприя Патак, Панкадж Капур, Джагдип, Наина Балсавер, Мадхукар Торадмал--Описание: Молодой импульсивный парень Аамир Хуссейн становится бессильным свидетелем насилия над его бывшей девушкой Нитой. Полный отчаяния, чувства вины и планов мести, он покидает дом, бродит по улицам, пока, в конце-концов, судьба ни сводит его с полицейским Капуром, который уже много лет мечтает расправиться с местным мафиози, главарём банды, виновными в насилии над Нитой. У циничного полицейского и у отчаявшегося парня-общая цель-отомстить и уничтожить.--Релиз-группа:
Благодарность:
larisa_k, за предоставленные материалы
kraffty и Nastia, за озвучку фильма-Сведение звука: pca1962--
Сэмпл: http://multi-up.com/1042088
Качество видео: DVDRip
Формат видео: AVI
Видео: XviD, 640x480, 29.970 fps, 679 kbps
Аудио: AC3, 48 kHz, 2.0 (stereo), 192 kbps (русский)
Аудио 2: MP3, 32 kHz, 2.0 (stereo), 96 kbps (хинди)
MediaInfo
General
Complete name : Pepel.1989.DVDRip.XviD.BwTorrents.avi
Format : AVI
Format/Info : Audio Video Interleave
File size : 879 MiB
Duration : 2h 4mn
Overall bit rate : 984 Kbps
Movie name : Pepel.1989
Genre : Drama/Crime
Writing application : VirtualDubMod 1.5.10.2 (build 2540/release)
Original source form/Name : Movie
Comment : mixing audio rus - pca1962
Video
ID : 0
Format : MPEG-4 Visual
Format profile : Advanced Simple@L5
Format settings, BVOP : 1
Format settings, QPel : No
Format settings, GMC : No warppoints
Format settings, Matrix : Custom
Codec ID : XVID
Codec ID/Hint : XviD
Duration : 2h 4mn
Bit rate : 679 Kbps
Width : 640 pixels
Height : 480 pixels
Display aspect ratio : 4:3
Frame rate : 29.970 fps
Color space : YUV
Chroma subsampling : 4:2:0
Bit depth : 8 bits
Scan type : Progressive
Compression mode : Lossy
Bits/(Pixel*Frame) : 0.074
Stream size : 606 MiB (69%)
Writing library : XviD 1.2.0SMP (UTC 2006-01-08)
Audio #1
ID : 1
Format : AC-3
Format/Info : Audio Coding 3
Mode extension : CM (complete main)
Format settings, Endianness : Big
Codec ID : 2000
Duration : 2h 4mn
Bit rate mode : Constant
Bit rate : 192 Kbps
Channel count : 2 channels
Channel positions : Front: L R
Sampling rate : 48.0 KHz
Bit depth : 16 bits
Compression mode : Lossy
Stream size : 171 MiB (20%)
Alignment : Split accross interleaves
Interleave, duration : 33 ms (1.00 video frame)
Interleave, preload duration : 500 ms
Audio #2
ID : 2
Format : MPEG Audio
Format version : Version 1
Format profile : Layer 3
Mode : Joint stereo
Mode extension : MS Stereo
Codec ID : 55
Codec ID/Hint : MP3
Duration : 2h 4mn
Bit rate mode : Constant
Bit rate : 96.0 Kbps
Channel count : 2 channels
Sampling rate : 32.0 KHz
Compression mode : Lossy
Stream size : 85.7 MiB (10%)
Alignment : Aligned on interleaves
Interleave, duration : 36 ms (1.08 video frame)
Interleave, preload duration : 504 ms
Writing library : LAME3.97b
Encoding settings : -m j -V 4 -q 2 -lowpass 15.1 -b 96

-
-Скриншот c названием фильма Скриншоты
Скачать

Скачать торрент! Пепел / Raakh (Адитья Бхаттачария / Aditya Bhattacharya) [1989, Индия, Драма, криминал, боевик, DVDRip] DVO + Original

Как скачивать? · Что такое торрент? · Рейтинг и ограничения

Сайт не распространяет и не хранит электронные версии произведений, а лишь предоставляет доступ к создаваемому пользователями каталогу ссылок на торрент-файлы, которые содержат только списки хеш-сумм

[Профиль] [ЛС]
Показать сообщения:    
Ответить на тему

Текущее время: Сегодня 06:17

Часовой пояс: GMT + 4



Вы не можете начинать темы
Вы не можете отвечать на сообщения
Вы не можете редактировать свои сообщения
Вы не можете удалять свои сообщения
Вы не можете голосовать в опросах
Вы не можете прикреплять файлы к сообщениям
Вы не можете скачивать файлы