ДухLess 2 (Роман Прыгунов) [2015, Драма, DVDRip, AVC]

Ответить на тему
 
Автор Сообщение

user ®

Стаж: 7 лет 7 месяцев

Сообщений: 20008

Пост Пост: #1 от 05-Апр-2015 12:39

[Цитировать]

ДухLess 2
Жанр: Драма
Год выпуска: 2015
Продолжительность: 01:47:03
Режиссёр: Роман Прыгунов
В ролях: Данила Козловский Мария Андреева Милош Бикович Павел Ворожцов Сергей Бурунов Владимир Симонов Доминик Пинон Александра Бортич
Описание: Макс Андреев решил начать жизнь с чистого листа, для чего отправился на остров в Юго-Восточной Азии. Казалось, что теперь его идеальную жизнь ничто не нарушит, но однажды к нему приезжает старый друг из прошлой столичной жизни. Обстоятельства складываются так, что Макс возвращается на родину, где ему предстоит стать частью чего-то нового. Казалось, что он уже давно осознал все свои ошибки, и больше никогда не повторит их. Но вскоре ему предстоит встретиться со своим прошлым, которое он так и не смог отпустить…
Сэмпл: http://sendfile.su/1104340
Качество видео: DVDRip
Формат видео: MKV
Видео: Видео Идентификатор : 1 Формат : AVC Формат/Информация : Advanced Video Codec Профиль формата
Аудио: Аудио Идентификатор : 2 Формат : AC-3 Формат/Информация : Audio Coding 3 Расширение режима :
MediaInfo
Формат : Matroska
Версия формата : Version 2
Размер файла : 1,46 Гбайт
Продолжительность : 1 ч. 47 м.
Общий поток : 1949 Кбит/сек
Название фильма : by_bo3417
Дата кодирования : UTC 2015-04-02 16:08:53
Программа кодирования : mkvmerge v6.2.0 ('Promised Land') built on Apr 28 2013 12:22:01
Библиотека кодирования : libebml v1.3.0 + libmatroska v1.4.0
DURATION : 01:47:03.760000000
NUMBER_OF_FRAMES : 160594
NUMBER_OF_BYTES : 1204113534
_STATISTICS_WRITING_APP : mkvmerge v7.7.0 ('Six Voices') 32bit built on Feb 28 2015 23:23:00
_STATISTICS_WRITING_DATE_UTC : 2015-04-02 16:01:22
_STATISTICS_TAGS : BPS DURATION NUMBER_OF_FRAMES NUMBER_OF_BYTES
Видео
Идентификатор : 1
Формат : AVC
Формат/Информация : Advanced Video Codec
Профиль формата : High@L4.1
Параметр CABAC формата : Да
Параметр ReFrames формата : 9 кадров
Идентификатор кодека : V_MPEG4/ISO/AVC
Продолжительность : 1 ч. 47 м.
Битрейт : 1500 Кбит/сек
Ширина : 720 пикселей
Высота : 428 пикселей
Соотношение сторон : 2,40:1
Соотношение сторон в оригинале : 2,40:1
Режим частоты кадров : Постоянный
Частота кадров : 25,000 кадров/сек
Цветовое пространство : YUV
Субдискретизация насыщенности : 4:2:0
Битовая глубина : 8 бит
Тип развёртки : Прогрессивная
Бит/(Пиксели*Кадры) : 0.195
Размер потока : 1,09 Гбайт (75%)
Заголовок : by_bo3417
Библиотека кодирования : x264 core 146 r2538 121396c
Настройки программы : cabac=1 / ref=9 / deblock=1:-3:-3 / analyse=0x3:0x133 / me=umh / subme=11 / psy=1 / psy_rd=1.00:0.00 / mixed_ref=1 / me_range=48 / chroma_me=1 / trellis=2 / 8x8dct=1 / cqm=0 / deadzone=21,11 / fast_pskip=0 / chroma_qp_offset=-2 / threads=6 / lookahead_threads=1 / sliced_threads=0 / nr=0 / decimate=0 / interlaced=0 / bluray_compat=0 / constrained_intra=0 / bframes=9 / b_pyramid=2 / b_adapt=2 / b_bias=0 / direct=3 / weightb=1 / open_gop=0 / weightp=2 / keyint=250 / keyint_min=25 / scenecut=40 / intra_refresh=0 / rc_lookahead=40 / rc=2pass / mbtree=1 / bitrate=1500 / ratetol=1.0 / qcomp=0.60 / qpmin=10 / qpmax=51 / qpstep=4 / cplxblur=20.0 / qblur=0.5 / ip_ratio=1.40 / aq=1:1.00
Default : Да
Forced : Нет
Аудио
Идентификатор : 2
Формат : AC-3
Формат/Информация : Audio Coding 3
Расширение режима : CM (complete main)
Параметр Endianness формата : Big
Идентификатор кодека : A_AC3
Продолжительность : 1 ч. 47 м.
Вид битрейта : Постоянный
Битрейт : 448 Кбит/сек
Каналы : 6 каналов
Расположение каналов : Front: L C R, Side: L R, LFE
Частота : 48,0 КГц
Битовая глубина : 16 бит
Метод сжатия : С потерями
Размер потока : 343 Мбайт (23%)
Язык : Russian
Default : Да
Forced : Нет
Меню
00:00:00.000 : en:00:00:00.000
00:10:23.600 : en:00:10:23.600
00:21:29.880 : en:00:21:29.880
00:27:33.200 : en:00:27:33.200
00:34:24.080 : en:00:34:24.080
00:45:09.440 : en:00:45:09.440
00:53:02.200 : en:00:53:02.200
01:02:42.320 : en:01:02:42.320
01:12:48.520 : en:01:12:48.520
01:20:06.840 : en:01:20:06.840
01:28:28.280 : en:01:28:28.280
01:39:18.200 : en:01:39:18.200
Скриншот c названием фильма Скриншоты
Скачать

Скачать торрент!

Как скачивать? · Что такое торрент? · Рейтинг и ограничения

Сайт не распространяет и не хранит электронные версии произведений, а лишь предоставляет доступ к создаваемому пользователями каталогу ссылок на торрент-файлы, которые содержат только списки хеш-сумм

[Профиль] [ЛС]
Показать сообщения:    
Ответить на тему

Текущее время: Сегодня 19:22

Часовой пояс: GMT + 4



Вы не можете начинать темы
Вы не можете отвечать на сообщения
Вы не можете редактировать свои сообщения
Вы не можете удалять свои сообщения
Вы не можете голосовать в опросах
Вы не можете прикреплять файлы к сообщениям
Вы не можете скачивать файлы