Не из мира сего / Ghazab (С.П. Диксит / C.P. Dixit) [1982, Индия, Драма, DVDRip] Sub Rus

Ответить на тему
 
Автор Сообщение

user ®

Стаж: 12 лет

Сообщений: 15092

Пост Пост: #1 от 04-Апр-2015 21:09

[Цитировать]

Не из мира сего / Ghazab
Страна: Индия
Жанр: Драма
Год выпуска: 1982
Продолжительность: 02:35:54
Перевод: Субтитры
Cубтитры: русские
Режиссер: С.П. Диксит / C.P. Dixit
В ролях: Сима Део, Дхармендра, Рекха, Кришан Дхаван, Аруна Ирани, Джагдип, Виджу Хоте, Шрирам Лагу, Кешто Мукхерджи, Мадан Пури, Ранджит
Описание: Мунна Баба (настоящее имя Аджай) - мягкий и наивный молодой человек, из богатой семьи. Его прислуга и так называемые друзья сговорились против него, и обещают помочь найти его мать и брата Виджая, с которыми Мунна был разлучен сразу после рождения. Мунна вне себя от радости и благодарен друзьям, но совсем недолго, так как они очень скоро показывают свою истинную сущность и убивают его. Беспокойный дух Мунны ищет своего брата Виджая, чтобы отомстить за свою смерть.... Виджай сначала думает, что дух Мунны - это галлюцинация, но когда его мать подтверждает, что у него действительно был брат-близнец, Виджай соглашается сопровождать дух брата туда, где он был убит, и тем самым помочь отомстить за себя. Но дела идут не по плану, и Виджай сам становится жертвой изменников, и его может постичь та же участь, что и Мунну...
Доп. информация:
Перевод и редакция субтитров:Анджелина & aredhel (Спасибо!)
Сэмпл: http://multi-up.com/1042033
Качество видео: DVDRip
Формат видео: AVI
Видео: XviD build 50, 560x416 (1.35:1), 29.970 fps, 1688 kbps avg
Аудио: Hindi AC3 Dolby Digital, 48 kHz, 2/0 (L,R) ch, 192.00 kbps
Формат субтитров: hardsub (неотключаемые)
MediaInfo
General
Complete name : F:\Ne.iz.mira.sego.1982.DVDRip.XviD.BwTorrents.avi
Format : AVI
Format/Info : Audio Video Interleave
Format profile : OpenDML
File size : 2.06 GiB
Duration : 2h 35mn
Overall bit rate : 1 888 Kbps
Writing application : VirtualDubMod 1.5.10.2 (build 2540/release)
Writing library : VirtualDubMod build 2540/release
Video
ID : 0
Format : MPEG-4 Visual
Format profile : AdvancedSimple@L5
Format settings, BVOP : Yes
Format settings, QPel : No
Format settings, GMC : No warppoints
Format settings, Matrix : Custom
Codec ID : XVID
Codec ID/Hint : XviD
Duration : 2h 35mn
Bit rate : 1 681 Kbps
Width : 560 pixels
Height : 416 pixels
Display aspect ratio : 4/3
Frame rate : 29.970 fps
Resolution : 24 bits
Colorimetry : 4:2:0
Scan type : Progressive
Bits/(Pixel*Frame) : 0.241
Stream size : 1.83 GiB (89%)
Writing library : XviD 1.2.1 (UTC 2008-12-04)
Audio
ID : 1
Format : AC-3
Format/Info : Audio Coding 3
Codec ID : 2000
Duration : 2h 35mn
Bit rate mode : Constant
Bit rate : 192 Kbps
Channel(s) : 2 channels
Channel positions : L R
Sampling rate : 48.0 KHz
Stream size : 214 MiB (10%)
Alignment : Split accross interleaves
Interleave, duration : 33 ms (1.00 video frame)
Interleave, preload duration : 500 ms
Language : English
Скриншоты
Скачать

Скачать торрент! Не из мира сего / Ghazab (С.П. Диксит / C.P. Dixit) [1982, Индия, Драма, DVDRip] Sub Rus

Как скачивать? · Что такое торрент? · Рейтинг и ограничения

Сайт не распространяет и не хранит электронные версии произведений, а лишь предоставляет доступ к создаваемому пользователями каталогу ссылок на торрент-файлы, которые содержат только списки хеш-сумм

[Профиль] [ЛС]
Показать сообщения:    
Ответить на тему

Текущее время: Сегодня 11:59

Часовой пояс: GMT + 4



Вы не можете начинать темы
Вы не можете отвечать на сообщения
Вы не можете редактировать свои сообщения
Вы не можете удалять свои сообщения
Вы не можете голосовать в опросах
Вы не можете прикреплять файлы к сообщениям
Вы не можете скачивать файлы