Вендетта / Vanmham (Джай Кришна / Jai Krishna) [2014, Индия, Драма, семейный, HDRip-AVC] Sub Rus

Ответить на тему
 
Автор Сообщение

user ®

Стаж: 12 лет

Сообщений: 15092

Пост Пост: #1 от 04-Апр-2015 03:24

[Цитировать]

Вендетта / Vanmham Страна: Индия
Жанр: Драма, семейный
Год выпуска: 2014
Продолжительность: 2:21:00
Перевод: Субтитры
Cубтитры: русские
Оригинальная аудиодорожка: Тамильский
Режиссер: Джай Кришна / Jai Krishna
В ролях: Виджай Сетхупати, Кришна, Сунайна, Мадху Судхан, Босе Венкат и др.
Описание: Радха и Челладурай - лучшие друзья, свои будни они проводят за танцами и прочими развлечениями. Упрёки старших не волнуют ребят, и вместо того, чтобы найти работу, они вовсю устраивают свою личную жизнь: Радха готовится к свадьбе, а Челладурай ухлёстывает за местной красавицей Ваданой. Но старший брат девушки не в восторге от её выбора и наотрез отказывается благословить молодых на семейную жизнь, да и дела в бизнесе идут не гладко, что ещё больше усугубляет положение. На фоне всех этих событий в семье Ваданы внезапно происходит несчастье, виновниками которого по ужасной случайности оказываются Радха и Челладурай..
Релиз-группа: Deepavali
Перевод субтитров: Sima Kivi
Сэмпл: http://multi-up.com/1041803
Качество видео: HDRip-AVC
Формат видео: MKV
Видео: H.264, 1156х496, 25 fps, 1643 kbps
Аудио: AC3, 48 kHz, 6 channels, 448 kbps
Формат субтитров: hardsub (неотключаемые)
MediaInfo
C:\Users\алла\Videos\бимуви\Vendetta.2014.HDrip.Deepavali.mkv
General
Unique ID : 210367910430041295803333816411670999757 (0x9E4362C4054E04C4511C364D8FE472CD)
Complete name : C:\Users\алла\Videos\бимуви\Vendetta.2014.HDrip.Deepavali.mkv
Format : Matroska
Format version : Version 2
File size : 2.07 GiB
Duration : 2h 21mn
Overall bit rate : 2 094 Kbps
Encoded date : UTC 2015-04-02 10:06:31
Writing application : Lavf54.63.104
Writing library : Lavf54.63.104
Video #1
ID : 1
Format : AVC
Format/Info : Advanced Video Codec
Format profile : High@L3.1
Format settings, CABAC : Yes
Format settings, ReFrames : 2 frames
Codec ID : V_MPEG4/ISO/AVC
Duration : 2h 21mn
Bit rate : 1 643 Kbps
Width : 1 152 pixels
Height : 496 pixels
Display aspect ratio : 2.35:1
Frame rate mode : Variable
Frame rate : 25.000 fps
Color space : YUV
Chroma subsampling : 4:2:0
Bit depth : 8 bits
Scan type : Progressive
Bits/(Pixel*Frame) : 0.115
Stream size : 1.59 GiB (77%)
Writing library : x264 core 129
Encoding settings : cabac=1 / ref=2 / deblock=1:0:0 / analyse=0x3:0x113 / me=hex / subme=6 / psy=1 / psy_rd=1.00:0.00 / mixed_ref=1 / me_range=16 / chroma_me=1 / trellis=0 / 8x8dct=1 / cqm=0 / deadzone=21,11 / fast_pskip=1 / chroma_qp_offset=-2 / threads=2 / lookahead_threads=1 / sliced_threads=0 / nr=0 / decimate=1 / interlaced=0 / bluray_compat=0 / constrained_intra=0 / bframes=0 / weightp=2 / keyint=250 / keyint_min=25 / scenecut=40 / intra_refresh=0 / rc_lookahead=40 / rc=2pass / mbtree=1 / bitrate=1643 / ratetol=1.0 / qcomp=0.60 / qpmin=10 / qpmax=51 / qpstep=4 / cplxblur=20.0 / qblur=0.5 / ip_ratio=1.41 / aq=1:1.00
Language : English
Audio #2
ID : 2
Format : AC-3
Format/Info : Audio Coding 3
Mode extension : CM (complete main)
Codec ID : A_AC3
Duration : 2h 21mn
Bit rate mode : Constant
Bit rate : 448 Kbps
Channel(s) : 6 channels
Channel positions : Front: L C R, Side: L R, LFE
Sampling rate : 48.0 KHz
Bit depth : 16 bits
Compression mode : Lossy
Stream size : 453 MiB (21%)
Language : English
Скриншот c названием фильма Скриншоты
Скачать

Скачать торрент! Вендетта / Vanmham (Джай Кришна / Jai Krishna) [2014, Индия, Драма, семейный, HDRip-AVC] Sub Rus

Как скачивать? · Что такое торрент? · Рейтинг и ограничения

Сайт не распространяет и не хранит электронные версии произведений, а лишь предоставляет доступ к создаваемому пользователями каталогу ссылок на торрент-файлы, которые содержат только списки хеш-сумм

[Профиль] [ЛС]
Показать сообщения:    
Ответить на тему

Текущее время: Сегодня 14:38

Часовой пояс: GMT + 4



Вы не можете начинать темы
Вы не можете отвечать на сообщения
Вы не можете редактировать свои сообщения
Вы не можете удалять свои сообщения
Вы не можете голосовать в опросах
Вы не можете прикреплять файлы к сообщениям
Вы не можете скачивать файлы