Исход: Цари и боги / Exodus: Gods and Kings (Ридли Скотт / Ridley Scott) [2014, Великобритания, США, Испания, драма, приключения, BDRip 1080p] Dub (Rus, Ukr) + VO (Д.Есарев) + Sub Rus, Ukr, Eng + Original Eng

Ответить на тему
 
Автор Сообщение

user ®

Стаж: 7 лет 7 месяцев

Сообщений: 20008

Пост Пост: #1 от 02-Апр-2015 20:21

[Цитировать]

Исход: Цари и боги / Exodus: Gods and Kings
Страна: Великобритания, США, Испания
Студия: Chernin Entertainment
Жанр: драма, приключения
Год выпуска: 2014
Продолжительность: 02:30:20
Перевод: Профессиональный (дублированный) (Rus, Ukr)
Перевод 2: Одноголосый закадровый Д.Есарев
Cубтитры: Russian (Forced, Full), Ukrainian, English (Full, SDH, Commentary)
Оригинальная аудиодорожка: английский
Режиссер: Ридли Скотт / Ridley Scott
В ролях: Кристиан Бэйл, Джоэл Эдгертон, Джон Туртурро, Аарон Пол, Бен Мендельсон, Мария Вальверде, Сигурни Уивер, Бен Кингсли, Хиам Аббасс, Исаак Эндрюс
Описание: Ветхозаветная история о великом пророке Моисее и освобождении еврейского народа из египетского плена. Моисей появился на свет в те времена, когда фараон приказал убивать всех новорожденных мальчиков еврейского происхождения. Чтобы спасти его, мать положила малыша в корзину из тростника и отправила вниз по Нилу.
Ребенка нашла дочь фараона, которая усыновила его и растила рядом с Рамсесом - будущим фараоном. Много лет спустя, став мужчиной, Моисей бежит из Египта, а затем возвращается туда по велению Господа, чтобы избавить свой народ от оков рабства...

Тип релиза: BDRip 1080p
Контейнер: MKV
Видео: 1920x800 at 23.976 fps, x264@L4.1, ~15.2 Mbps avg
Аудио: Russian: 48 kHz, DTS, 3/2 (L,C,R,l,r) + LFE ch, ~768.00 kbps avg |Дубляж, Blu-ray EUR|
Аудио 2: Ukrainian: 48 kHz, AC3, 3/2 (L,C,R,l,r) + LFE ch, ~448.00 kbps avg |Дубляж, Blu-ray EUR|
Аудио 3: Russian: 48 kHz, DTS, 3/2 (L,C,R,l,r) + LFE ch, ~1536.00 kbps avg |Одноголосый закадровый, Д.Есарев|
Аудио 4: English: 48 kHz, DTS, 3/2 (L,C,R,l,r) + LFE ch, ~1536.00 kbps avg
Аудио 5: English: 48 kHz, AC3, 2/0 (L,R) ch, ~224.00 kbps avg |Audio Commentary by Director/Producer Ridley Scott and Co-Screenwriter|
Формат субтитров: softsub (SRT)
MediaInfo
Format : Matroska
Format version : Version 4 / Version 2
File size : 21.0 GiB
Duration : 2h 30mn
Overall bit rate : 20.0 Mbps
Movie name : Exodus: Gods and Kings (2014) - Release for HDCLUB
Encoded date : UTC 2015-04-02 08:15:38
Writing application : mkvmerge v7.1.0 ('Good Love') 64bit built on Jul 27 2014 13:06:55
Writing library : libebml v1.3.0 + libmatroska v1.4.1
Cover : Yes
DURATION : 02:25:32.558000000
NUMBER_OF_FRAMES : 2388
NUMBER_OF_BYTES : 124826
_STATISTICS_WRITING_APP : mkvmerge v7.1.0 ('Good Love') 64bit built on Jul 27 2014 13:06:55
_STATISTICS_WRITING_DATE_UTC : 2015-04-02 08:15:38
_STATISTICS_TAGS : BPS DURATION NUMBER_OF_FRAMES NUMBER_OF_BYTES
Video
ID : 1
Format : AVC
Format/Info : Advanced Video Codec
Format profile : High@L4.1
Format settings, CABAC : Yes
Format settings, ReFrames : 5 frames
Codec ID : V_MPEG4/ISO/AVC
Duration : 2h 30mn
Bit rate : 15.2 Mbps
Width : 1 920 pixels
Height : 800 pixels
Display aspect ratio : 2.40:1
Frame rate mode : Constant
Frame rate : 23.976 fps
Color space : YUV
Chroma subsampling : 4:2:0
Bit depth : 8 bits
Scan type : Progressive
Bits/(Pixel*Frame) : 0.412
Stream size : 15.9 GiB (76%)
Title : Exodus: Gods and Kings (2014) - Release for HDCLUB
Writing library : x264 core 146 r0+2584 6cf85c6 t_mod_Custom [8-bit@all ]
Encoding settings : cabac=1 / ref=5 / deblock=1:-3:-3 / analyse=0x3:0x133 / me=tesa / subme=10 / psy=1 / fade_compensate=0.00 / psy_rd=1.03:0.00 / mixed_ref=1 / me_range=24 / chroma_me=1 / trellis=2 / 8x8dct=1 / cqm=0 / deadzone=21,11 / fast_pskip=1 / chroma_qp_offset=-2 / threads=24 / lookahead_threads=4 / sliced_threads=0 / nr=0 / decimate=1 / interlaced=0 / bluray_compat=0 / constrained_intra=0 / fgo=0 / bframes=9 / b_pyramid=2 / b_adapt=2 / b_bias=0 / direct=3 / weightb=1 / open_gop=0 / weightp=2 / keyint=250 / keyint_min=23 / scenecut=40 / intra_refresh=0 / rc=crf / mbtree=0 / crf=15.5000 / qcomp=0.60 / qpmin=0:0:0 / qpmax=69:69:69 / qpstep=4 / ip_ratio=1.40 / pb_ratio=1.20 / aq=3:0.82 / aq-sensitivity=10.00 / aq-factor=1.00:1.00:1.00 / aq2=0 / aq3=0 / zones=48,550,crf=14/2286,2524,crf=14/7364,7457,crf=14/7702,7756,crf=14/8150,8255,crf=14/8416,8520,crf=14/11139,11300,crf=14/12136,12158,crf=14/13587,13639,crf=14/14292,14419,crf=14/14942,14988,crf=14/15091,16843,crf=14/20909,20955,crf=14/23048,23170,crf=14/23353,23616,crf=14/30159,30350,crf=14/32186,32311,crf=14/37328,38180,crf=14/38502,38628,crf=14/41469,41709,crf=14/41797,41874,crf=14/42125,42198,crf=14/60030,60830,crf=14/61570,61615,crf=14/61667,62551,crf=14/63792,64166,crf=14/64286,64344,crf=14/75575,75658,crf=14/75731,75776,crf=14/78215,82710,crf=14.8/92675,92742,crf=14/93727,93823,crf=14/103591,103872,crf=14/103928,103988,crf=14/107025,107136,crf=14/107502,107947,crf=14/108194,108235,crf=14/110618,114824,crf=14.8/115208,116917,crf=14/131412,131520,crf=14/132171,133360,crf=14/137230,142901,crf=14.8/148513,153687,crf=14.8/161776,161882,crf=14/162822,163256,crf=14/165135,165268,crf=14/169248,169361,crf=14/170236,170298,crf=14/170375,173198,crf=14/174229,174340,crf=14/174559,174816,crf=14/175517,175585,crf=14/175701,175772,crf=14/184002,191411,crf=14.8/191412,191772,crf=14/200965,201239,crf=14/201514,201605,crf=14/205819,206155,crf=14
Language : English
Default : Yes
Forced : No
Matrix coefficients : BT.709
DURATION : 02:30:20.220000000
NUMBER_OF_FRAMES : 216269
NUMBER_OF_BYTES : 17534734403
_STATISTICS_WRITING_APP : mkvmerge v7.1.0 ('Good Love') 64bit built on Jul 27 2014 13:06:55
_STATISTICS_WRITING_DATE_UTC : 2015-04-02 08:15:38
_STATISTICS_TAGS : BPS DURATION NUMBER_OF_FRAMES NUMBER_OF_BYTES
Audio #1
ID : 2
Format : DTS
Format/Info : Digital Theater Systems
Mode : 16
Format settings, Endianness : Big
Codec ID : A_DTS
Duration : 2h 30mn
Bit rate mode : Constant
Bit rate : 768 Kbps
Channel(s) : 6 channels
Channel positions : Front: L C R, Side: L R, LFE
Sampling rate : 48.0 KHz
Bit depth : 24 bits
Compression mode : Lossy
Stream size : 826 MiB (4%)
Title : DTS 5.1 @ 768 kbps - DUB, Blu-ray EUR
Language : Russian
Default : Yes
Forced : No
Audio #2
ID : 3
Format : AC-3
Format/Info : Audio Coding 3
Mode extension : CM (complete main)
Format settings, Endianness : Big
Codec ID : A_AC3
Duration : 2h 30mn
Bit rate mode : Constant
Bit rate : 448 Kbps
Channel(s) : 6 channels
Channel positions : Front: L C R, Side: L R, LFE
Sampling rate : 48.0 KHz
Bit depth : 16 bits
Compression mode : Lossy
Stream size : 482 MiB (2%)
Title : AC3 5.1 @ 448 kbps - DUB, Blu-ray EUR
Language : Ukrainian
Default : No
Forced : No
Audio #3
ID : 4
Format : DTS
Format/Info : Digital Theater Systems
Mode : 16
Format settings, Endianness : Big
Codec ID : A_DTS
Duration : 2h 30mn
Bit rate mode : Constant
Bit rate : 1 509 Kbps
Channel(s) : 6 channels
Channel positions : Front: L C R, Side: L R, LFE
Sampling rate : 48.0 KHz
Bit depth : 24 bits
Compression mode : Lossy
Stream size : 1.58 GiB (8%)
Title : DTS 5.1 @ 1536 kbps - AVO, D.Esarev
Language : Russian
Default : No
Forced : No
Audio #4
ID : 5
Format : DTS
Format/Info : Digital Theater Systems
Mode : 16
Format settings, Endianness : Big
Codec ID : A_DTS
Duration : 2h 30mn
Bit rate mode : Constant
Bit rate : 1 509 Kbps
Channel(s) : 6 channels
Channel positions : Front: L C R, Side: L R, LFE
Sampling rate : 48.0 KHz
Bit depth : 24 bits
Compression mode : Lossy
Stream size : 1.58 GiB (8%)
Title : DTS 5.1 @ 1536 kbps
Language : English
Default : No
Forced : No
Audio #5
ID : 6
Format : AC-3
Format/Info : Audio Coding 3
Mode extension : CM (complete main)
Format settings, Endianness : Big
Codec ID : A_AC3
Duration : 2h 30mn
Bit rate mode : Constant
Bit rate : 224 Kbps
Channel(s) : 2 channels
Channel positions : Front: L R
Sampling rate : 48.0 KHz
Bit depth : 16 bits
Compression mode : Lossy
Stream size : 241 MiB (1%)
Title : AC3 2.0 @ 224 kbps - Commentary by Director/Producer Ridley Scott and Co-Screenwriter Jeffrey Caine
Language : English
Default : No
Forced : No
Text #1
ID : 7
Format : UTF-8
Codec ID : S_TEXT/UTF8
Codec ID/Info : UTF-8 Plain Text
Title : Forced, iTunes
Language : Russian
Default : Yes
Forced : No
Text #2
ID : 8
Format : UTF-8
Codec ID : S_TEXT/UTF8
Codec ID/Info : UTF-8 Plain Text
Title : iTunes
Language : Russian
Default : No
Forced : No
Text #3
ID : 9
Format : UTF-8
Codec ID : S_TEXT/UTF8
Codec ID/Info : UTF-8 Plain Text
Title : iTunes
Language : Ukrainian
Default : No
Forced : No
Text #4
ID : 10
Format : UTF-8
Codec ID : S_TEXT/UTF8
Codec ID/Info : UTF-8 Plain Text
Title : Commentary, Blu-ray EUR
Language : Russian
Default : No
Forced : No
Text #5
ID : 11
Format : UTF-8
Codec ID : S_TEXT/UTF8
Codec ID/Info : UTF-8 Plain Text
Language : English
Default : No
Forced : No
Text #6
ID : 12
Format : UTF-8
Codec ID : S_TEXT/UTF8
Codec ID/Info : UTF-8 Plain Text
Title : SDH
Language : English
Default : No
Forced : No
Text #7
ID : 13
Format : UTF-8
Codec ID : S_TEXT/UTF8
Codec ID/Info : UTF-8 Plain Text
Title : Commentary
Language : English
Default : No
Forced : No
Menu
00:00:00.000 : en:00:00:00.000
00:03:55.402 : en:00:03:55.402
00:06:51.995 : en:00:06:51.995
00:11:47.707 : en:00:11:47.707
00:14:29.452 : en:00:14:29.452
00:18:37.658 : en:00:18:37.658
00:22:15.834 : en:00:22:15.834
00:26:51.151 : en:00:26:51.151
00:30:31.288 : en:00:30:31.288
00:36:41.366 : en:00:36:41.366
00:40:48.321 : en:00:40:48.321
00:44:49.937 : en:00:44:49.937
00:48:47.800 : en:00:48:47.800
00:51:16.448 : en:00:51:16.448
00:54:22.217 : en:00:54:22.217
00:57:32.658 : en:00:57:32.658
01:00:31.169 : en:01:00:31.169
01:04:41.544 : en:01:04:41.544
01:06:49.047 : en:01:06:49.047
01:11:01.883 : en:01:11:01.883
01:16:53.692 : en:01:16:53.692
01:21:18.040 : en:01:21:18.040
01:24:30.357 : en:01:24:30.357
01:28:08.533 : en:01:28:08.533
01:30:54.157 : en:01:30:54.157
01:34:14.566 : en:01:34:14.566
01:37:20.543 : en:01:37:20.543
01:39:20.204 : en:01:39:20.204
01:42:40.321 : en:01:42:40.321
01:46:50.070 : en:01:46:50.070
01:49:02.661 : en:01:49:02.661
01:52:18.315 : en:01:52:18.315
01:57:29.876 : en:01:57:29.876
02:00:23.842 : en:02:00:23.842
02:05:41.325 : en:02:05:41.325
02:07:31.269 : en:02:07:31.269
02:13:38.469 : en:02:13:38.469
02:16:21.882 : en:02:16:21.882
02:19:39.997 : en:02:19:39.997
02:23:19.800 : en:02:23:19.800
Скриншоты
Скачать

Скачать торрент!

Как скачивать? · Что такое торрент? · Рейтинг и ограничения

Сайт не распространяет и не хранит электронные версии произведений, а лишь предоставляет доступ к создаваемому пользователями каталогу ссылок на торрент-файлы, которые содержат только списки хеш-сумм

[Профиль] [ЛС]
Показать сообщения:    
Ответить на тему

Текущее время: Сегодня 15:38

Часовой пояс: GMT + 4



Вы не можете начинать темы
Вы не можете отвечать на сообщения
Вы не можете редактировать свои сообщения
Вы не можете удалять свои сообщения
Вы не можете голосовать в опросах
Вы не можете прикреплять файлы к сообщениям
Вы не можете скачивать файлы