Девушка напротив / The Girl Next Door (Грегори Уилсон / Gregory Wilson) [2007, США, ужасы, триллер, драма, BDRip 1080p] DVO + AVO (Алексеев) + Original Eng + Sub Eng

Ответить на тему
 
Автор Сообщение

user ®

Стаж: 7 лет 7 месяцев

Сообщений: 20008

Пост Пост: #1 от 02-Апр-2015 17:15

[Цитировать]

Девушка напротив / The Girl Next Door- Год выпуска: 2007
Страна: США
Жанр: ужасы, триллер, драма
Продолжительность: 01:31:10
Перевод: Профессиональный (двухголосый, закадровый)
+ Авторский одноголосый А.Алексеев
Оригинальная звуковая дорожка: English
Субтитры: English-Режиссер: Грегори Уилсон / Gregory Wilson
В ролях: Бланш Бэйкер, Блайт Оффарт, Дэниэл Манче, Уильям Этертон, Кевин Чэмберлин, Дин Фолкенберри, Гэбриэлль Ховарт, Бенжамин Росс Каплан, Спенсер Ли, Марк Марголис
О фильме: Подросток Дэвид Морган, во время ловли раков, знакомится со своей новой соседкой - 16-ти летней Меган, которая, со своей 10-ти летней сестрой Сьюзан, живет в семье Чендлеров. Миссис Чендлер, которую дети зовут «Руфь», не самая хорошая мать. У нее трое сыновей, которым она разрешает пить пиво, и иногда заводит с ними непристойные разговоры.
Меган и Сьюзан непросто живется в доме «Тетушки Руфь». Они вынуждены терпеть побои и унижения со стороны членов семьи. Мэг не выдерживает и докладывает об этом шерифу, за что Руфь решает её проучить. Дэвид застал Руфь и её сыновей за истязаниями Мэг. Он не мог уснуть всю ночь и решил помочь ей...-SbR!
Релиз:
Источник: The Girl Next Door 2007 1080p GER Blu-ray AVC DTS-HD MA 5.1-iFPD
Формат: MKV
Видео: 1920x1080 at 23.976 fps, x264@L4.1, crf, ~13073 kbps avg
Аудио #01: Russian: 48 kHz, AC3, 3/2 (L,C,R,l,r) + LFE ch, ~448 kbps avg |Двухголосый закадровый|
Аудио #02: Russian: 48 kHz, DTS, 3/2 (L,C,R,l,r) + LFE ch, ~1509 kbps avg |Одноголосый закадровый, А. Алексеев|
Аудио #03: English: 48 kHz, DTS, 3/2 (L,C,R,l,r) + LFE ch, ~1509.00 kbps avg
Семпл-Source vs Encode
-
mInfo
Полное имя : D:\The.Girl.Next.Door.2007.1080p.BluRay.2xRus.Eng.HDCLUB-SbR.mkv
Формат : Matroska
Версия формата : Version 4 / Version 2
Размер файла : 10,5 Гбайт
Продолжительность : 1 ч. 31 м.
Общий поток : 16,5 Мбит/сек
Название фильма : The Girl Next Door (2007) - Release for HDCLUB by SbR
Дата кодирования : UTC 2014-04-01 07:43:00
Программа кодирования : mkvmerge v6.8.0 ('Theme for Great Cities') 64bit built on Mar 2 2014 21:34:26
Библиотека кодирования : libebml v1.3.0 + libmatroska v1.4.1
Attachements : cover.jpg / xlog.txt
Видео
Идентификатор : 1
Формат : AVC
Формат/Информация : Advanced Video Codec
Профиль формата : High@L4.1
Параметр CABAC формата : Да
Параметр ReFrames формата : 4 кадра
Идентификатор кодека : V_MPEG4/ISO/AVC
Продолжительность : 1 ч. 31 м.
Битрейт : 12,7 Мбит/сек
Ширина : 1920 пикселей
Высота : 1080 пикселей
Соотношение сторон : 16:9
Режим частоты кадров : Постоянный
Частота кадров : 23,976 кадра/сек
Цветовое пространство : YUV
Субдискретизация насыщенности : 4:2:0
Битовая глубина : 8 бит
Тип развёртки : Прогрессивная
Бит/(Пиксели*Кадры) : 0.256
Размер потока : 8,12 Гбайт (77%)
Заголовок : Release for HDCLUB
Библиотека кодирования : x264 core 142 r2409+42 04be48a tMod [8-bit@4:2:0 X86_64]
Настройки программы : cabac=1 / ref=4 / deblock=1:-2:-2 / analyse=0x3:0x113 / me=umh / subme=11 / psy=1 / fade_compensate=0.00 / psy_rd=1.00:0.00 / mixed_ref=1 / me_range=48 / chroma_me=1 / trellis=2 / 8x8dct=1 / cqm=0 / deadzone=21,11 / fast_pskip=1 / chroma_qp_offset=-2 / threads=12 / lookahead_threads=2 / sliced_threads=0 / nr=0 / decimate=1 / interlaced=0 / bluray_compat=0 / constrained_intra=0 / fgo=0 / bframes=8 / b_pyramid=2 / b_adapt=2 / b_bias=0 / direct=1 / weightb=1 / open_gop=0 / weightp=2 / keyint=250 / keyint_min=23 / scenecut=40 / intra_refresh=0 / rc_lookahead=60 / rc=crf / mbtree=0 / crf=18.5000 / qcomp=0.70 / qpmin=0:0:0 / qpmax=69:69:69 / qpstep=4 / vbv_maxrate=62500 / vbv_bufsize=78125 / crf_max=0.0 / nal_hrd=none / filler=0 / ip_ratio=1.40 / pb_ratio=1.30 / aq=4:0.80 / aq-sensitivity=11.00 / aq-factor=1.00:1.00:1.00 / aq2=1:0.60 / aq2-sensitivity=9.00 / aq2-factor=1.00:1.00:1.00 / aq3=1:[0.60:0.60]:[0.60:0.60]:[0.60:0.60]:[0.60:0.60] / aq3-sensitivity=10.00 / aq3-factor=[1.00:1.00]:[1.00:1.00]:[1.00:1.00] / aq3-boundary=192:64:24
Язык : English
Default : Да
Forced : Нет
Основные цвета : BT.709
Характеристики трансфера : BT.709
Коэффициенты матрицы : BT.709
colour_range : Limited
Аудио #1
Идентификатор : 2
Формат : AC-3
Формат/Информация : Audio Coding 3
Расширение режима : CM (complete main)
Параметр Endianness формата : Big
Идентификатор кодека : A_AC3
Продолжительность : 1 ч. 31 м.
Вид битрейта : Постоянный
Битрейт : 448 Кбит/сек
Каналы : 6 каналов
Расположение каналов : Front: L C R, Side: L R, LFE
Частота : 48,0 КГц
Битовая глубина : 16 бит
Метод сжатия : С потерями
Размер потока : 292 Мбайт (3%)
Заголовок : DVO
Язык : Russian
Default : Да
Forced : Нет
Аудио #2
Идентификатор : 3
Формат : DTS
Формат/Информация : Digital Theater Systems
Режим : 16
Параметр Endianness формата : Big
Идентификатор кодека : A_DTS
Продолжительность : 1 ч. 31 м.
Вид битрейта : Постоянный
Битрейт : 1509 Кбит/сек
Каналы : 6 каналов
Расположение каналов : Front: L C R, Side: L R, LFE
Частота : 48,0 КГц
Битовая глубина : 16 бит
Метод сжатия : С потерями
Размер потока : 984 Мбайт (9%)
Заголовок : VO, Алексеев
Язык : Russian
Default : Нет
Forced : Нет
Аудио #3
Идентификатор : 4
Формат : DTS
Формат/Информация : Digital Theater Systems
Режим : 16
Параметр Endianness формата : Big
Идентификатор кодека : A_DTS
Продолжительность : 1 ч. 31 м.
Вид битрейта : Постоянный
Битрейт : 1509 Кбит/сек
Каналы : 6 каналов
Расположение каналов : Front: L C R, Side: L R, LFE
Частота : 48,0 КГц
Битовая глубина : 16 бит
Метод сжатия : С потерями
Размер потока : 984 Мбайт (9%)
Язык : English
Default : Нет
Forced : Нет
Текст
Идентификатор : 5
Формат : UTF-8
Идентификатор кодека : S_TEXT/UTF8
Идентификатор кодека/Информация : UTF-8 Plain Text
Язык : English
Default : Нет
Forced : Нет
Меню
00:00:00.000 : en:Introduction / Main Title
00:06:14.374 : en:Fun and Games
00:11:09.669 : en:Just Like One of the Gang
00:17:18.037 : en:Lessons in Femininity
00:23:14.393 : en:The Painting
00:29:28.767 : en:Disobedience
00:35:11.109 : en:Seeking Help
00:40:36.434 : en:The Game
00:46:51.809 : en:Sneaking Back for More
00:53:03.180 : en:"I Can't Make Them Stop"
00:58:57.534 : en:Questioned by the Law
01:04:26.863 : en:Branded a Whore
01:12:26.342 : en:Taking Out Desire
01:16:16.572 : en:Escape Plans
01:22:25.941 : en:"It's What You Do Last That Counts"
01:27:06.220 : en:End Credits
-
Скачать

Скачать торрент!

Как скачивать? · Что такое торрент? · Рейтинг и ограничения

Сайт не распространяет и не хранит электронные версии произведений, а лишь предоставляет доступ к создаваемому пользователями каталогу ссылок на торрент-файлы, которые содержат только списки хеш-сумм

[Профиль] [ЛС]
Показать сообщения:    
Ответить на тему

Текущее время: Сегодня 04:23

Часовой пояс: GMT + 4



Вы не можете начинать темы
Вы не можете отвечать на сообщения
Вы не можете редактировать свои сообщения
Вы не можете удалять свои сообщения
Вы не можете голосовать в опросах
Вы не можете прикреплять файлы к сообщениям
Вы не можете скачивать файлы