Максимальное ускорение / Maximum Overdrive (Стивен Кинг / Stephen King) [1986, США, ужасы, фантастика, боевик, триллер, BDRemux 1080p] DVO + AVO (Сербин) + VO + Original Eng + Sub (Rus, Eng)

Ответить на тему
 
Автор Сообщение

user ®

Стаж: 7 лет 7 месяцев

Сообщений: 20008

Пост Пост: #1 от 02-Апр-2015 01:45

[Цитировать]

Максимальное ускорение
Maximum Overdrive
«Evil's wheels»
- Страна: США
Жанр: ужасы, фантастика, боевик, триллер
Год выпуска: 1986
Продолжительность: 01:38:06-Перевод 1: профессиональный (двухголосый закадровый)
Перевод 2: авторский (одноголосый закадровый) - Ю. Сербин
Перевод 3: одноголосый закадровый - неизвестный
Перевод 4: одноголосый закадровый - Painblack
Cубтитры: русские, английские
Оригинальная аудиодорожка: английский-Режиссер: Стивен Кинг / Stephen King
В ролях: Эмилио Эстевес, Пэт Хингл, Лора Хэррингтон, Ярдли Смит, Джон Шорт, Эллен МакЭлдафф, Дж. К. Куин, Кристофер Мёрни, Холтер Грэм, Фрэнки Фэйзон-Описание: Когда комета Ри-М проходит через орбиту Земли и задевает ее своим хвостом, происходит глобальная катастрофа. Перестают качать насосы, выходят из строя компьютеры, электрические ножи режут домохозяек, а газонокосилки косят людей как траву. Внезапно ожившие машины из лучших друзей человека превращаются в его злейших врагов, жаждущих человеческой крови. Особенно безжалостно ведут себя огромные грузовики, давящие всех на своем пути.
Горстка людей во главе с Билли Робинсоном, укрывшись от стаи взбесившихся грузовиков в здании бензозаправочной станции, готовится дать последний бой взбунтовавшимся машинам…

-Доп. информация:

  • Ремукс собран на основе итальянского трансфера.
  • За исходный BD ITA спасибо - dead0 (BitHQ).
  • За исходный DVD R5 спасибо - [url=http://***/forum/profile.php?mode=viewprofile&u=403546]cybernatic_cat[/url].
  • За исходный DVD R1 спасибо - JUNEMOM2 (BitHQ).
  • За синхронизацию DVO, Сербина, VO, оригинальной дорожки с DVD R1 и всех субтитров спасибо мне.
    (в русских сабах исправлены все замеченные ошибки распознавания и подправлены тайм-коды некоторых строк)

  • За оцифровку VO неизвестного спасибо - [url=http://***/forum/profile.php?mode=viewprofile&u=5262584]sasikainen[/url], за ее синхронизацию спасибо - Юрай (Piratca).
  • Дорога Сербина не та, что лежит здесь в пред.раздаче, и не та, что на пиратке. За качественную оцифровку спасибо - [url=http://***/forum/profile.php?mode=viewprofile&u=15865191]Kino-profan[/url].-СЭМПЛ
    Качество: BDRemux 1080p
    Контейнер: MKV
    Видео: MPEG-4 AVC | 1920x1080 | 23.976 fps | ~23970 kbps
    Аудио 1: AC-3 | 5.1 ch | 48.0 kHz | 16 bits | 448 kbps | DVO (DVD R5)
    Аудио 2: AC-3 | 2.0 ch | 48.0 kHz | 16 bits | 192 kbps | AVO Юрий Сербин
    Аудио 3: AC-3 | 2.0 ch | 48.0 kHz | 16 bits | 192 kbps | VO неизвестный
    Аудио 4: AC-3 | 2.0 ch | 48.0 kHz | 16 bits | 192 kbps | VO Painblack
    Аудио 5: AC-3 | 5.1 ch | 48.0 kHz | 16 bits | 448 kbps | Eng (DVD R1)
    Аудио 6: AC-3 | 2.0 ch | 48.0 kHz | 16 bits | 192 kbps | Eng (BD ITA)
    Субтитры: SRT | UTF-8 | Рус (DVD R5) + Eng + Eng SDH
    Главы: есть, 2 вида (DVD/BD), именованные

    MediaInfo
Format : MatroskaFormat version : Version 4 / Version 2File size : 17.6 GiBDuration : 1h 38mnOverall bit rate mode : VariableOverall bit rate : 25.6 MbpsMovie name : 1986 Maximum OverdriveEncoded date : UTC 2015-03-30 10:11:43Writing application : mkvmerge v7.8.0 ('River Man') 64bit built on Mar 27 2015 16:31:37Writing library : libebml v1.3.1 + libmatroska v1.4.2Attachements : cover.jpgDURATION : 01:38:06.432000000NUMBER_OF_FRAMES : 183951NUMBER_OF_BYTES : 141274368_STATISTICS_WRITING_APP : mkvmerge v7.8.0 ('River Man') 64bit built on Mar 27 2015 16:31:37_STATISTICS_WRITING_DATE_UT : 2015-03-30 10:11:43_STATISTICS_TAGS : BPS DURATION NUMBER_OF_FRAMES NUMBER_OF_BYTES
VideoID : 1Format : AVCFormat/Info : Advanced Video CodecFormat profile : High@L4.1Format settings, CABAC : YesFormat settings, ReFrames : 3 framesCodec ID : V_MPEG4/ISO/AVCDuration : 1h 38mnBit rate mode : VariableBit rate : 23.5 MbpsMaximum bit rate : 30.0 MbpsWidth : 1 920 pixelsHeight : 1 080 pixelsDisplay aspect ratio : 16:9Frame rate mode : ConstantFrame rate : 23.976 fpsStandard : NTSCColor space : YUVChroma subsampling : 4:2:0Bit depth : 8 bitsScan type : ProgressiveBits/(Pixel*Frame) : 0.472Stream size : 16.1 GiB (92%)Title : ITALanguage : EnglishDefault : YesForced : NoColor primaries : BT.709Transfer characteristics : BT.709Matrix coefficients : BT.709Color range : LimitedDURATION : 01:38:06.464000000NUMBER_OF_FRAMES : 141134NUMBER_OF_BYTES : 17638354590_STATISTICS_WRITING_APP : mkvmerge v7.8.0 ('River Man') 64bit built on Mar 27 2015 16:31:37_STATISTICS_WRITING_DATE_UT : 2015-03-30 10:11:43_STATISTICS_TAGS : BPS DURATION NUMBER_OF_FRAMES NUMBER_OF_BYTES
Audio #1ID : 2Format : AC-3Format/Info : Audio Coding 3Mode extension : CM (complete main)Format settings, Endianness : BigCodec ID : A_AC3Duration : 1h 38mnBit rate mode : ConstantBit rate : 448 KbpsChannel(s) : 6 channelsChannel positions : Front: L C R, Side: L R, LFESampling rate : 48.0 KHzBit depth : 16 bitsCompression mode : LossyStream size : 314 MiB (2%)Title : DVO (DVD R5)Language : RussianDefault : YesForced : No
Audio #2ID : 3Format : AC-3Format/Info : Audio Coding 3Mode extension : CM (complete main)Format settings, Endianness : BigCodec ID : A_AC3Duration : 1h 38mnBit rate mode : ConstantBit rate : 192 KbpsChannel(s) : 2 channelsChannel positions : Front: L RSampling rate : 48.0 KHzBit depth : 16 bitsCompression mode : LossyStream size : 135 MiB (1%)Title : AVO Юрий СербинLanguage : RussianDefault : NoForced : No
Audio #3ID : 4Format : AC-3Format/Info : Audio Coding 3Mode extension : CM (complete main)Format settings, Endianness : BigCodec ID : A_AC3Duration : 1h 38mnBit rate mode : ConstantBit rate : 192 KbpsChannel(s) : 2 channelsChannel positions : Front: L RSampling rate : 48.0 KHzBit depth : 16 bitsCompression mode : LossyStream size : 135 MiB (1%)Title : AVO неизвестныйLanguage : RussianDefault : NoForced : No
Audio #4ID : 5Format : AC-3Format/Info : Audio Coding 3Mode extension : CM (complete main)Format settings, Endianness : BigCodec ID : A_AC3Duration : 1h 38mnBit rate mode : ConstantBit rate : 192 KbpsChannel(s) : 2 channelsChannel positions : Front: L RSampling rate : 48.0 KHzBit depth : 16 bitsCompression mode : LossyStream size : 135 MiB (1%)Title : VO PainblackLanguage : RussianDefault : NoForced : No
Audio #5ID : 6Format : AC-3Format/Info : Audio Coding 3Mode extension : CM (complete main)Format settings, Endianness : BigCodec ID : A_AC3Duration : 1h 38mnBit rate mode : ConstantBit rate : 448 KbpsChannel(s) : 6 channelsChannel positions : Front: L C R, Side: L R, LFESampling rate : 48.0 KHzBit depth : 16 bitsCompression mode : LossyStream size : 314 MiB (2%)Title : Eng (DVD R1)Language : EnglishDefault : NoForced : No
Audio #6ID : 7Format : AC-3Format/Info : Audio Coding 3Mode extension : CM (complete main)Format settings, Endianness : BigCodec ID : A_AC3Duration : 1h 38mnBit rate mode : ConstantBit rate : 192 KbpsChannel(s) : 2 channelsChannel positions : Front: L RSampling rate : 48.0 KHzBit depth : 16 bitsCompression mode : LossyStream size : 135 MiB (1%)Title : Eng (BD ITA)Language : EnglishDefault : NoForced : No
Text #1ID : 8Format : UTF-8Codec ID : S_TEXT/UTF8Codec ID/Info : UTF-8 Plain TextTitle : DVD R5Language : RussianDefault : NoForced : No
Text #2ID : 9Format : UTF-8Codec ID : S_TEXT/UTF8Codec ID/Info : UTF-8 Plain TextLanguage : EnglishDefault : NoForced : No
Text #3ID : 10Format : UTF-8Codec ID : S_TEXT/UTF8Codec ID/Info : UTF-8 Plain TextTitle : SDHLanguage : EnglishDefault : NoForced : No
Menu #100:00:00.000 : en:1. Main Titles / A Situation Here!00:07:05.300 : en:2. That's Some Rig00:11:13.982 : en:3. Short Circuit00:15:54.228 : en:4. A Close Call00:19:33.580 : en:5. Is He Dead?00:24:52.299 : en:6. Mechanical Revelt00:29:28.541 : en:7. Duncan, Look Out!00:34:45.291 : en:8. Surrounded00:41:37.269 : en:9. Bombs Away!00:45:36.141 : en:10. I'm Warning You!00:51:18.850 : en:11. Lights Out00:58:28.647 : en:12. Dead On Arrival?01:05:09.013 : en:13. A Lesson In Manners01:08:30.148 : en:14. You Want A War?01:14:23.100 : en:15. Morse Code01:16:36.634 : en:16. Risky Business01:21:05.202 : en:17. The Coffee Break Is Over01:25:30.634 : en:18. When I Say Run, You Run01:30:46.416 : en:19. A Perfect Shot01:35:24.393 : en:20. End Credits
Menu #200:00:00.000 : it:1. La cometa Rhe-M00:12:49.518 : it:2. Le macchine impazziscono00:23:16.269 : it:3. Viaggio di nozze00:36:55.379 : it:4. Sotto sequestro00:47:30.347 : it:5. L'arsenale00:58:50.652 : it:6. Piano di recupero01:10:47.368 : it:7. Riforniteci o morirete01:22:35.450 : it:8. Piano di evasione
Скриншоты
Скачать

Скачать торрент!

Как скачивать? · Что такое торрент? · Рейтинг и ограничения

Сайт не распространяет и не хранит электронные версии произведений, а лишь предоставляет доступ к создаваемому пользователями каталогу ссылок на торрент-файлы, которые содержат только списки хеш-сумм

[Профиль] [ЛС]
Показать сообщения:    
Ответить на тему

Текущее время: Сегодня 10:05

Часовой пояс: GMT + 4



Вы не можете начинать темы
Вы не можете отвечать на сообщения
Вы не можете редактировать свои сообщения
Вы не можете удалять свои сообщения
Вы не можете голосовать в опросах
Вы не можете прикреплять файлы к сообщениям
Вы не можете скачивать файлы