Большая афера / The Grand Seduction (Дон МакКеллар / Don McKellar) [2013, Канада, комедия, драма, BDRip 720p] MVO + AVO (Сербин) + Sub Rus, Eng + Original Eng

Ответить на тему
 
Автор Сообщение

user ®

Стаж: 7 лет 7 месяцев

Сообщений: 20008

Пост Пост: #1 от 02-Апр-2015 01:45

[Цитировать]

Большая афера / The Grand Seduction Страна: Канада
Студия: Max Films Productions Inc., Morag Loves Company Limited
Жанр: комедия, драма
Год выпуска: 2013
Продолжительность: 01:53:08
Перевод 1: Профессиональный (многоголосый закадровый) R5
Перевод 2: Авторский (одноголосый закадровый) Сербин
Cубтитры: русские, английские
Оригинальная аудиодорожка: английский
Режиссер: Дон МакКеллар / Don McKellar
В ролях: Брендан Глисон, Тейлор Китч, Лиэн Балабан, Гордон Пинсент, Анна Хопкинс, Ронда Роджерс, Джофф Адамс, Джон Бартлетт, Карли Бун, Марк Критч
Описание: Добро пожаловать в рай, где исполняются все желания! Маленький живописный городок у моря. Население: 120 отъявленных лжецов. И им очень нужен хороший доктор.

Тип релиза: BDRip 720p [VietHD]
Контейнер: MKV
Видео: AVC, 1280x694, 5240Kbps, 23.976 fps
Аудио 1: Russian: 48 kHz, AC3, 3/2 (L,C,R,l,r) + LFE ch, ~448.00 kbps avg |R5|
Аудио 2: Russian: 48 kHz, AC3, 3/2 (L,C,R,l,r) + LFE ch, ~640.00 kbps avg |Сербин|
Аудио 3: English: 48 kHz, AC3, 3/2 (L,C,R,l,r) + LFE ch, ~640.00 kbps |Original|
Чаптеры: есть

x264 log
x264 [info]: frame I:1404 Avg QP:14.50 size:138730
x264 [info]: frame P:33131 Avg QP:15.95 size: 53005
x264 [info]: frame B:128224 Avg QP:17.44 size: 20158
x264 [info]: consecutive B-frames: 1.3% 1.1% 7.2% 19.6% 17.6% 44.2% 4.9% 1.9% 1.4% 0.8%
MediaInfo
General
Unique ID : 252719743387113137011262549714809711211 (0xBE200D5891BC35ACA692B4DBF508EA6B)
Complete name : D:\рипы\The.Grand.Seduction.2013.720p.BluRay.DD5.1.x264-Talian-.mkv
Format : Matroska
Format version : Version 2
File size : 5.59 GiB
Duration : 1h 53mn
Overall bit rate : 7 076 Kbps
Movie name : The Grand Seduction -Talian-
Encoded date : UTC 2015-03-31 11:44:46
Writing application : mkvmerge v5.7.0 ('The Whirlwind') built on Jul 8 2012 20:08:51
Writing library : libebml v1.2.3 + libmatroska v1.3.0
Video
ID : 1
Format : AVC
Format/Info : Advanced Video Codec
Format profile : High@L4.1
Format settings, CABAC : Yes
Format settings, ReFrames : 9 frames
Codec ID : V_MPEG4/ISO/AVC
Duration : 1h 53mn
Bit rate : 5 207 Kbps
Width : 1 280 pixels
Height : 694 pixels
Display aspect ratio : 16:9
Frame rate : 23.976 fps
Color space : YUV
Chroma subsampling : 4:2:0
Bit depth : 8 bits
Scan type : Progressive
Bits/(Pixel*Frame) : 0.244
Stream size : 4.12 GiB (74%)
Title : VietHD
Writing library : x264 core 142 r2431+42 c69a006 tMod [8-bit@all X86_64]
Encoding settings : cabac=1 / ref=9 / deblock=1:-3:-3 / analyse=0x3:0x133 / me=umh / subme=10 / psy=1 / fade_compensate=0.00 / psy_rd=1.00:0.00 / mixed_ref=1 / me_range=24 / chroma_me=1 / trellis=2 / 8x8dct=1 / cqm=0 / deadzone=21,11 / fast_pskip=1 / chroma_qp_offset=-2 / threads=12 / lookahead_threads=2 / sliced_threads=0 / nr=0 / decimate=1 / interlaced=0 / bluray_compat=0 / constrained_intra=0 / fgo=0 / bframes=9 / b_pyramid=2 / b_adapt=2 / b_bias=0 / direct=3 / weightb=1 / open_gop=0 / weightp=2 / keyint=250 / keyint_min=23 / scenecut=40 / intra_refresh=0 / rc=crf / mbtree=0 / crf=16.0000 / qcomp=0.65 / qpmin=0:0:0 / qpmax=69:69:69 / qpstep=4 / ip_ratio=1.30 / pb_ratio=1.20 / aq=4:0.70 / aq-sensitivity=10.00 / aq-factor=1.00:1.00:1.00 / aq2=0 / aq3=0 / zones=24,272,crf=13.8/464,785,crf=13.8/843,1167,crf=13.8/1214,1406,crf=13.8/1464,1554,crf=13.8/2012,2672,crf=13.8/4833,4840,crf=13.8/4934,5292,crf=13.8/5421,5919,crf=13.8/17667,17734,crf=13.8/114865,114943,crf=13.8/115102,115170,crf=13.8/115656,115783,crf=13.8
Language : English
Default : Yes
Forced : No
Matrix coefficients : BT.709-5, BT.1361, IEC 61966-2-4 709, SMPTE RP177
Audio #1
ID : 2
Format : AC-3
Format/Info : Audio Coding 3
Mode extension : CM (complete main)
Format settings, Endianness : Big
Codec ID : A_AC3
Duration : 1h 53mn
Bit rate mode : Constant
Bit rate : 448 Kbps
Channel(s) : 6 channels
Channel positions : Front: L C R, Side: L R, LFE
Sampling rate : 48.0 KHz
Bit depth : 16 bits
Compression mode : Lossy
Stream size : 363 MiB (6%)
Title : MVO- R5
Language : Russian
Default : Yes
Forced : No
Audio #2
ID : 3
Format : AC-3
Format/Info : Audio Coding 3
Mode extension : CM (complete main)
Format settings, Endianness : Big
Codec ID : A_AC3
Duration : 1h 53mn
Bit rate mode : Constant
Bit rate : 640 Kbps
Channel(s) : 6 channels
Channel positions : Front: L C R, Side: L R, LFE
Sampling rate : 48.0 KHz
Bit depth : 16 bits
Compression mode : Lossy
Stream size : 518 MiB (9%)
Title : AVO-Сербин
Language : Russian
Default : No
Forced : No
Audio #3
ID : 4
Format : AC-3
Format/Info : Audio Coding 3
Mode extension : CM (complete main)
Format settings, Endianness : Big
Codec ID : A_AC3
Duration : 1h 53mn
Bit rate mode : Constant
Bit rate : 640 Kbps
Channel(s) : 6 channels
Channel positions : Front: L C R, Side: L R, LFE
Sampling rate : 48.0 KHz
Bit depth : 16 bits
Compression mode : Lossy
Stream size : 518 MiB (9%)
Title : Original
Language : English
Default : No
Forced : No
Text #1
ID : 5
Format : UTF-8
Codec ID : S_TEXT/UTF8
Codec ID/Info : UTF-8 Plain Text
Title : Sub
Language : Russian
Default : No
Forced : No
Text #2
ID : 6
Format : UTF-8
Codec ID : S_TEXT/UTF8
Codec ID/Info : UTF-8 Plain Text
Title : Sub-full
Language : English
Default : No
Forced : No
Text #3
ID : 7
Format : UTF-8
Codec ID : S_TEXT/UTF8
Codec ID/Info : UTF-8 Plain Text
Title : Sub-SDH
Language : English
Default : No
Forced : No
Menu
00:00:00.000 : en:00:00:00.000
00:08:31.428 : en:00:08:31.428
00:15:51.033 : en:00:15:51.033
00:21:00.634 : en:00:21:00.634
00:29:02.074 : en:00:29:02.074
00:36:40.865 : en:00:36:40.865
00:45:05.703 : en:00:45:05.703
00:51:12.152 : en:00:51:12.152
00:58:23.750 : en:00:58:23.750
01:06:46.586 : en:01:06:46.586
01:12:34.100 : en:01:12:34.100
01:20:29.241 : en:01:20:29.241
01:27:37.169 : en:01:27:37.169
01:32:48.021 : en:01:32:48.021
01:40:28.940 : en:01:40:28.940
01:49:11.044 : en:01:49:11.044
Доп.информация
За перевод Юрия Сербина спасибо: e180 - oleg-k, luka69, dsk71, zeleniy, Nadoelo, tide, Foots, GKillah, chontvari, carnivale, xerman13, DMX-92, Эдуард, DIEnis82, denis_mgn_1987; HDCLUB - lemonarium, anton48, ultrajeka, tambov68, baranovna, Dervish, 44px, sawa090.
Скриншоты
Source vs Encode


Скачать

Скачать торрент!

Как скачивать? · Что такое торрент? · Рейтинг и ограничения

Сайт не распространяет и не хранит электронные версии произведений, а лишь предоставляет доступ к создаваемому пользователями каталогу ссылок на торрент-файлы, которые содержат только списки хеш-сумм

[Профиль] [ЛС]
Показать сообщения:    
Ответить на тему

Текущее время: Сегодня 05:59

Часовой пояс: GMT + 4



Вы не можете начинать темы
Вы не можете отвечать на сообщения
Вы не можете редактировать свои сообщения
Вы не можете удалять свои сообщения
Вы не можете голосовать в опросах
Вы не можете прикреплять файлы к сообщениям
Вы не можете скачивать файлы